Loading...
Error
 

Скачать торрент Ковбой Бибоп / Cowboy Bebop (Синъитиро Ватанабэ, Ёсиюки Такэи, Икуро Сато) [TV-1] [26 из 26] [1998, аниме, мультфильм, фантастика, боевик, драма, комедия, криминал, BDRip 1080p] [HEVC] [MVO][KanSaI Studio] [VO][Azazel]

 
Автор Сообщение

Roman2013

post 09-Окт-19 17:21

Ковбой Бибоп / Cowboy Bebop
«Увидимся, Космический Ковбой....»
pic

Год выпуска: 1998-1999
Страна: Япония
Студия: Sunrise
Жанр: Аниме, мультфильм, фантастика, боевик, драма, комедия, криминал
Продолжительность: 26 эпизодов, по ~ 00:24:00
Перевод: Многоголосый закадровый (KanSaI Studio)(2019 г.)
Одноголосый закадровый (Azazel)
Субтитры: Русские
Режиссёр: Синъитиро Ватанабэ, Ёсиюки Такэи, Икуро Сато
Сценарий: Кэйко Нобумото, Хадзимэ Ятатэ, Митико Ёкотэ
Роли озвучивали: Коити Ямадэра, Унсё Исидзука, Мэгуми Хаясибара, Иссин Тиба, Аой Тада, Хироси Нака, Цутому Тарэки, Мики Нагасава, Тосихико Накадзима, Дзин Хирао
Описание:
Бывший полицейский Джет Блэк и человек с тёмным прошлым Спайк Шпигель совершенно не планировали увеличивать экипаж космического корабля «Бибоп», являющегося для них домом и средством передвижения. Но сети, раскинутые для поимки дорогостоящих отбросов общества, принесли им Фэй Валентайн — очаровательную картёжницу с колоссальным долгом, Эд — потерявшуюся компьютерную умницу и Эйн — предположительно, самую умную собаку на свете. Именно в таком составе экипаж Бибопа и продолжает своё дело — охоту за головами.

Качество: BDRip 1080p
Формат: MKV
Видео кодек: HEVC (H.265)
Аудио кодек: AC-3, AAC
Видео : 1448 x 1080 / (4:3) / ~2193 kbps / 23.976 fps / 0.058 bp / 10 bit
Аудио №1: Русский, KanSaI Studio: AC-3 / 2.0/ 48 kHz/ 192 Kbps
Аудио №2: Русский, Azazel: AAC / 2.0/ 48 kHz/ 117 Kbps
Аудио №3: Японский, 日本語: AAC / 6.0/ 48 kHz/ 374 Kbps

Рейтинг
pic
Cowboy Bebop - Japanese Blu-ray Trailer [HD]
MediaInfo
General
Unique ID : 76147645630883506639357061884791789619 (0x394980CA9AF119BC84FC69A3D3B49833)
Complete name : Cowboy.Bebop.1998.S01.(KanSaI.Studio)\Cowboy Bebop 01.mkv
Format : Matroska
Format version : Version 4
File size : 510 MiB
Duration : 24 min 44 s
Overall bit rate : 2 882 kb/s
Movie name : Cowboy Bebop — Episode 01
Encoded date : UTC 2019-10-08 12:31:55
Writing application : mkvmerge v37.0.0 ('Leave It') 64-bit
Writing library : libebml v1.3.9 + libmatroska v1.5.2
Attachments : HelveticaNeueLTCom-MdSemiEx.ttf / HelveticaNeueLTCom-MdSemiExO.ttf / TEMPSITC.TTF / GaramondPremrPro-Smbd.otf / GaramondPremrPro.otf / rough_typewriter.otf

Video
ID : 1
Format : HEVC
Format/Info : High Efficiency Video Coding
Format profile : Main [email protected]@Main
Codec ID : V_MPEGH/ISO/HEVC
Duration : 24 min 43 s
Bit rate : 2 193 kb/s
Width : 1 448 pixels
Height : 1 080 pixels
Display aspect ratio : 4:3
Frame rate mode : Constant
Frame rate : 23.976 (24000/1001) FPS
Color space : YUV
Chroma subsampling : 4:2:0
Bit depth : 10 bits
Bits/(Pixel*Frame) : 0.058
Stream size : 388 MiB (76%)
Writing library : x265 2.9:[Windows][GCC 7.1.0][64 bit] 10bit
Encoding settings : cpuid=1111039 / frame-threads=3 / numa-pools=8 / wpp / no-pmode / no-pme / no-psnr / no-ssim / log-level=2 / input-csp=1 / input-res=1448x1080 / interlace=0 / total-frames=0 / level-idc=0 / high-tier=1 / uhd-bd=0 / ref=3 / no-allow-non-conformance / no-repeat-headers / annexb / no-aud / no-hrd / info / hash=0 / no-temporal-layers / open-gop / min-keyint=24 / keyint=240 / gop-lookahead=0 / bframes=4 / b-adapt=0 / b-pyramid / bframe-bias=0 / rc-lookahead=15 / lookahead-slices=6 / scenecut=40 / radl=0 / no-intra-refresh / ctu=64 / min-cu-size=8 / no-rect / no-amp / max-tu-size=32 / tu-inter-depth=1 / tu-intra-depth=1 / limit-tu=0 / rdoq-level=0 / dynamic-rd=0.00 / no-ssim-rd / signhide / no-tskip / nr-intra=0 / nr-inter=0 / no-constrained-intra / strong-intra-smoothing / max-merge=2 / limit-refs=3 / no-limit-modes / me=1 / subme=2 / merange=57 / temporal-mvp / weightp / no-weightb / no-analyze-src-pics / deblock=0:0 / sao / no-sao-non-deblock / rd=2 / no-early-skip / rskip / fast-intra / no-tskip-fast / no-cu-lossless / no-b-intra / no-splitrd-skip / rdpenalty=0 / psy-rd=2.00 / psy-rdoq=0.00 / no-rd-refine / no-lossless / cbqpoffs=0 / crqpoffs=0 / rc=crf / crf=20.5 / qcomp=0.60 / qpstep=4 / stats-write=0 / stats-read=0 / ipratio=1.40 / pbratio=1.30 / aq-mode=1 / aq-strength=1.00 / cutree / zone-count=0 / no-strict-cbr / qg-size=32 / no-rc-grain / qpmax=69 / qpmin=0 / no-const-vbv / sar=1 / overscan=0 / videoformat=5 / range=0 / colorprim=1 / transfer=1 / colormatrix=1 / chromaloc=0 / display-window=0 / max-cll=0,0 / min-luma=0 / max-luma=1023 / log2-max-poc-lsb=8 / vui-timing-info / vui-hrd-info / slices=1 / no-opt-qp-pps / no-opt-ref-list-length-pps / no-multi-pass-opt-rps / scenecut-bias=0.05 / no-opt-cu-delta-qp / no-aq-motion / no-hdr / no-hdr-opt / no-dhdr10-opt / no-idr-recovery-sei / analysis-reuse-level=5 / scale-factor=0 / refine-intra=0 / refine-inter=0 / refine-mv=0 / no-limit-sao / ctu-info=0 / no-lowpass-dct / refine-mv-type=0 / copy-pic=1 / max-ausize-factor=1.0 / no-dynamic-refine / no-single-sei
Default : Yes
Forced : No
Color range : Limited
Color primaries : BT.709
Transfer characteristics : BT.709
Matrix coefficients : BT.709

Audio #1
ID : 2
Format : AC-3
Format/Info : Audio Coding 3
Commercial name : Dolby Digital
Codec ID : A_AC3
Duration : 24 min 43 s
Bit rate mode : Constant
Bit rate : 192 kb/s
Channel(s) : 2 channels
Channel layout : L R
Sampling rate : 48.0 kHz
Frame rate : 31.250 FPS (1536 SPF)
Bit depth : 16 bits
Compression mode : Lossy
Delay relative to video : -21 ms
Stream size : 33.9 MiB (7%)
Title : KanSaI.Studio
Language : Russian
Service kind : Complete Main
Default : Yes
Forced : No

Audio #2
ID : 3
Format : AAC LC
Format/Info : Advanced Audio Codec Low Complexity
Codec ID : A_AAC-2
Duration : 24 min 44 s
Bit rate : 117 kb/s
Channel(s) : 2 channels
Channel layout : L R
Sampling rate : 48.0 kHz
Frame rate : 46.875 FPS (1024 SPF)
Compression mode : Lossy
Delay relative to video : -21 ms
Stream size : 20.7 MiB (4%)
Title : Azazel
Language : Russian
Default : No
Forced : No

Audio #3
ID : 4
Format : AAC LC
Format/Info : Advanced Audio Codec Low Complexity
Codec ID : A_AAC-2
Duration : 24 min 43 s
Bit rate : 374 kb/s
Channel(s) : 6 channels
Channel layout : L R C Cb Lb Rb
Sampling rate : 48.0 kHz
Frame rate : 46.875 FPS (1024 SPF)
Compression mode : Lossy
Delay relative to video : -21 ms
Stream size : 66.1 MiB (13%)
Language : Japanese
Default : No
Forced : No

Text
ID : 5
Format : ASS
Codec ID : S_TEXT/ASS
Codec ID/Info : Advanced Sub Station Alpha
Duration : 22 min 23 s
Bit rate : 122 b/s
Count of elements : 245
Compression mode : Lossless
Stream size : 20.1 KiB (0%)
Language : Russian
Default : Yes
Forced : No
Скриншоты
Cowboy.Bebop.1998.S01.(KanSaI.Studio).torrent
 ЗОЛОТАЯ РАЗДАЧА! СКАЧАННОЕ НЕ ЗАСЧИТЫВАЕТСЯ! 
Вечный
Трекер: Зарегистрирован

magnet ссылка

 


Скачать .torrent

31 KB

Статус: проверено (by Арт33 в 09-Окт-19 21:08)
Зарегистрирован: 09-Окт-19 17:21
Скачан: 71 раз
Размер: 11.67 GB | 
Поблагодарили:
Скачать Ковбой Бибоп / Cowboy Bebop (Синъитиро Ватанабэ, Ёсиюки Такэи, Икуро Сато) [TV-1] [26 из 26] [1998, аниме, мультфильм, фантастика, боевик, драма, комедия, криминал, BDRip 1080p] [HEVC] [MVO][KanSaI Studio] [VO][Azazel] торрент
 


Похожие раздачи

Taraka

post 09-Окт-19 18:14 (спустя 53 минуты)

Ура! Я уж и ненадеялся в хд увидеть. Супер :)

UnfalleN

post 09-Окт-19 18:36 (спустя 22 минуты)

see you space cowboy.

дампир555

post 09-Окт-19 20:05 (спустя 1 час 28 минут)

если чесно и без обид - но озвучка отстой ! как по мне лучшая тут Евгения Лурье - так как лет так 121 назад смотрел в её озвучке

Текущее время: 16-Окт 07:57

Часовой пояс: GMT + 3



Вы не можете начинать темы
Вы не можете отвечать на сообщения
Вы не можете редактировать свои сообщения
Вы не можете удалять свои сообщения
Вы не можете голосовать в опросах
Вы не можете прикреплять файлы к сообщениям
Вы не можете скачивать файлы