Loading...
Error
 

Скачать торрент (Heavy Metal) Axel Rudi Pell - XXX Anniversary Live (2CD) - 2019 [FLAC, image +.cue, lossless]

 
Автор Сообщение

trygg

post 23-Окт-19 17:13


Axel Rudi Pell - XXX Anniversary Live (2CD)


pic
Год издания: 2019
Страна: Germany pic
Жанр: Heavy Metal
Продолжительность: 01:50:26
Лейбл издания: Steamhammer/ SPV
Страна-выпуска диска: EU pic
Номер по каталогу: SPV288262 2CD
Формат: FLAC
Битрейт аудио: Lossless
Тип рипа: image +.cue
Наличие сканов в содержимом раздачи: да

pic
Трэклист
pic
CD 1 | 00:50:48
pic
01. The Medieval Overture (Intro) (1:48)
02. The Wild And The Young (4:41)
03. Wildest Dreams (6:12)
04. Fool Fool (5:10)
05. Oceans Of Time (5:47)
06. Only The Strong Will Survive (6:15)
07. Mystica (incl. Drum Solo) (14:24)
08. Long Live Rock (6:31)
CD 2 | 00:59:38
pic
01. Game Of Sins / Tower Of Babylon (incl. Keyboard Solo) (16:07)
02. The Line (9:12)
03. Warrior (4:44)
04. Edge Of The World (incl. Band Introduction) (6:53)
05. Truth And Lies (2:29)
06. Carousel (5:11)
07. The Masquerade Ball / Casbah (8:24)
08. Rock The Nation (6:38)

pic
Лог создания рипа
CD 1

Код:

Exact Audio Copy V1.1 from 23. June 2015

EAC extraction logfile from 11. June 2019, 22:00

Axel Rudi Pell / XXX Anniversary Live CD1

Used drive  : TSSTcorpDVDWBD SH-B123L   Adapter: 0  ID: 4

Read mode               : Secure
Utilize accurate stream : Yes
Defeat audio cache      : Yes
Make use of C2 pointers : No

Read offset correction                      : 6
Overread into Lead-In and Lead-Out          : No
Fill up missing offset samples with silence : Yes
Delete leading and trailing silent blocks   : No
Null samples used in CRC calculations       : Yes
Used interface                              : Installed external ASPI interface

Used output format              : User Defined Encoder
Selected bitrate                : 768 kBit/s
Quality                         : High
Add ID3 tag                     : No
Command line compressor         : C:\Program Files (x86)\Exact Audio Copy\FLAC\FLAC.EXE
Additional command line options : -6 -V -T "ARTIST=%artist%" -T "TITLE=%title%" -T "ALBUM=%albumtitle%" -T "DATE=%year%" -T "TRACKNUMBER=%tracknr%" -T "GENRE=%genre%" -T "COMMENT=%comment%" -T "BAND=%albuminterpret%" -T "ALBUMARTIST=%albuminterpret%" -T "COMPOSER=%composer%" %haslyrics%--tag-from-file=LYRICS="%lyricsfile%"%haslyrics% -T "DISCNUMBER=%cdnumber%" -T "TOTALDISCS=%totalcds%" -T "TOTALTRACKS=%numtracks%" %hascover%--picture="%coverfile%"%hascover% %source% -o %dest%

TOC of the extracted CD

     Track |   Start  |  Length  | Start sector | End sector
    ---------------------------------------------------------
        1  |  0:00.00 |  1:48.28 |         0    |     8127
        2  |  1:48.28 |  4:41.12 |      8128    |    29214
        3  |  6:29.40 |  6:12.06 |     29215    |    57120
        4  | 12:41.46 |  5:09.69 |     57121    |    80364
        5  | 17:51.40 |  5:46.55 |     80365    |   106369
        6  | 23:38.20 |  6:14.74 |    106370    |   134493
        7  | 29:53.19 | 14:23.66 |    134494    |   199284
        8  | 44:17.10 |  6:31.20 |    199285    |   228629

Range status and errors

Selected range

     Filename E:\MUSIC\Axel Rudi Pell - XXX Anniversary Live CD1.wav

     Peak level 98.8 %
     Extraction speed 3.2 X
     Range quality 99.9 %
     Test CRC C7502D55
     Copy CRC C7502D55
     Copy OK

No errors occurred

AccurateRip summary

Track  1  not present in database
Track  2  not present in database
Track  3  not present in database
Track  4  not present in database
Track  5  not present in database
Track  6  not present in database
Track  7  not present in database
Track  8  not present in database

None of the tracks are present in the AccurateRip database

End of status report
CD 2

Код:

Exact Audio Copy V1.1 from 23. June 2015

EAC extraction logfile from 11. June 2019, 22:40

Axel Rudi Pell / XXX Anniversary Live CD2

Used drive  : TSSTcorpDVDWBD SH-B123L   Adapter: 0  ID: 4

Read mode               : Secure
Utilize accurate stream : Yes
Defeat audio cache      : Yes
Make use of C2 pointers : No

Read offset correction                      : 6
Overread into Lead-In and Lead-Out          : No
Fill up missing offset samples with silence : Yes
Delete leading and trailing silent blocks   : No
Null samples used in CRC calculations       : Yes
Used interface                              : Installed external ASPI interface

Used output format              : User Defined Encoder
Selected bitrate                : 768 kBit/s
Quality                         : High
Add ID3 tag                     : No
Command line compressor         : C:\Program Files (x86)\Exact Audio Copy\FLAC\FLAC.EXE
Additional command line options : -6 -V -T "ARTIST=%artist%" -T "TITLE=%title%" -T "ALBUM=%albumtitle%" -T "DATE=%year%" -T "TRACKNUMBER=%tracknr%" -T "GENRE=%genre%" -T "COMMENT=%comment%" -T "BAND=%albuminterpret%" -T "ALBUMARTIST=%albuminterpret%" -T "COMPOSER=%composer%" %haslyrics%--tag-from-file=LYRICS="%lyricsfile%"%haslyrics% -T "DISCNUMBER=%cdnumber%" -T "TOTALDISCS=%totalcds%" -T "TOTALTRACKS=%numtracks%" %hascover%--picture="%coverfile%"%hascover% %source% -o %dest%

TOC of the extracted CD

     Track |   Start  |  Length  | Start sector | End sector
    ---------------------------------------------------------
        1  |  0:00.00 | 16:07.06 |         0    |    72530
        2  | 16:07.06 |  9:12.25 |     72531    |   113955
        3  | 25:19.31 |  4:43.64 |    113956    |   135244
        4  | 30:03.20 |  6:52.67 |    135245    |   166211
        5  | 36:56.12 |  2:28.64 |    166212    |   177375
        6  | 39:25.01 |  5:10.49 |    177376    |   200674
        7  | 44:35.50 |  8:24.28 |    200675    |   238502
        8  | 53:00.03 |  6:37.40 |    238503    |   268317

Range status and errors

Selected range

     Filename E:\MUSIC\Axel Rudi Pell - XXX Anniversary Live CD2.wav

     Peak level 98.8 %
     Extraction speed 3.5 X
     Range quality 100.0 %
     Test CRC BC203263
     Copy CRC BC203263
     Copy OK

No errors occurred

AccurateRip summary

Track  1  not present in database
Track  2  not present in database
Track  3  not present in database
Track  4  not present in database
Track  5  not present in database
Track  6  not present in database
Track  7  not present in database
Track  8  not present in database

None of the tracks are present in the AccurateRip database

End of status report
Индексная карта (non-compilant .cue)
CD 1

Код:

REM GENRE Rock
REM DATE 2019
REM DISCID 5F0BE808
REM COMMENT "ExactAudioCopy v1.1"
PERFORMER "Axel Rudi Pell"
TITLE "XXX Anniversary Live CD1"
FILE "Axel Rudi Pell - XXX Anniversary Live CD1.flac" WAVE
  TRACK 01 AUDIO
    TITLE "The Medieval Overture (Intro) "
    PERFORMER "Axel Rudi Pell"
    INDEX 01 00:00:00
  TRACK 02 AUDIO
    TITLE "The Wild And The Young "
    PERFORMER "Axel Rudi Pell"
    INDEX 01 01:48:28
  TRACK 03 AUDIO
    TITLE "Wildest Dreams"
    PERFORMER "Axel Rudi Pell"
    INDEX 01 06:29:40
  TRACK 04 AUDIO
    TITLE "Fool Fool "
    PERFORMER "Axel Rudi Pell"
    INDEX 01 12:41:46
  TRACK 05 AUDIO
    TITLE "Oceans Of Time "
    PERFORMER "Axel Rudi Pell"
    INDEX 01 17:51:40
  TRACK 06 AUDIO
    TITLE "Only The Strong Will Survive"
    PERFORMER "Axel Rudi Pell"
    INDEX 01 23:38:20
  TRACK 07 AUDIO
    TITLE "Mystica (incl. Drum Solo) "
    PERFORMER "Axel Rudi Pell"
    INDEX 01 29:53:19
  TRACK 08 AUDIO
    TITLE "Long Live Rock"
    PERFORMER "Axel Rudi Pell"
    INDEX 01 44:17:10
CD 2

Код:

REM GENRE Rock
REM DATE 2019
REM DISCID 740DF908
REM COMMENT "ExactAudioCopy v1.1"
PERFORMER "Axel Rudi Pell"
TITLE "XXX Anniversary Live CD2"
FILE "Axel Rudi Pell - XXX Anniversary Live CD2.flac" WAVE
  TRACK 01 AUDIO
    TITLE "Game Of Sins / Tower Of Babylon (incl. Keyboard Solo) "
    PERFORMER "Axel Rudi Pell"
    INDEX 01 00:00:00
  TRACK 02 AUDIO
    TITLE "The Line "
    PERFORMER "Axel Rudi Pell"
    INDEX 01 16:07:06
  TRACK 03 AUDIO
    TITLE "Warrior "
    PERFORMER "Axel Rudi Pell"
    INDEX 01 25:19:31
  TRACK 04 AUDIO
    TITLE "Edge Of The World (incl. Band Introduction) "
    PERFORMER "Axel Rudi Pell"
    INDEX 01 30:03:20
  TRACK 05 AUDIO
    TITLE "Truth And Lies "
    PERFORMER "Axel Rudi Pell"
    INDEX 01 36:56:12
  TRACK 06 AUDIO
    TITLE "Carousel "
    PERFORMER "Axel Rudi Pell"
    INDEX 01 39:25:01
  TRACK 07 AUDIO
    TITLE "The Masquerade Ball / Casbah "
    PERFORMER "Axel Rudi Pell"
    INDEX 01 44:35:50
  TRACK 08 AUDIO
    TITLE "Rock The Nation"
    PERFORMER "Axel Rudi Pell"
    INDEX 01 53:00:03

для ознакомления:


pic
pic
2019. XXX Anniversary Live (Steamhammer SPV 288262 2CD Germany).torrent
Трекер: Зарегистрирован

magnet ссылка

 


Скачать .torrent

16 KB

Статус: проверено (by Snowden в 23-Окт-19 17:19)
Зарегистрирован: 23-Окт-19 17:13
Скачан: 10 раз
Размер: 728 MB | 
Поблагодарили:
Скачать (Heavy Metal) Axel Rudi Pell - XXX Anniversary Live (2CD) - 2019 [FLAC, image +.cue, lossless] торрент
 


Похожие раздачи

Текущее время: 20-Ноя 14:39

Часовой пояс: GMT + 3



Вы не можете начинать темы
Вы не можете отвечать на сообщения
Вы не можете редактировать свои сообщения
Вы не можете удалять свои сообщения
Вы не можете голосовать в опросах
Вы не можете прикреплять файлы к сообщениям
Вы не можете скачивать файлы