Loading...
Error
 

Скачать торрент Judas Priest - Live In London [2002, Heavy Metal, DVD9]

 
Автор Сообщение

trygg

post 22-Ноя-19 21:49


Judas Priest - Live In London


pic
pic
Год выпуска: 2002
Страна: UK pic
Жанр:Heavy Metal
Режиссер: Perry Joseph
Продолжительность: 01:31:32

Качество видео:
Контейнер: DVD9
Стандарт разрешения: 576p
Видео кодек: MPEG Video
Аудио кодек: AC-3
Видео: MPEG Video, 720X576, 7847 Kбит/сек, 25,000 кадров/сек, 0.757 bit/pic
Аудио 1: Английский, AC 3, 224 Кбит/сек, 2 ch (Front: L R), 48,0 КГц
Аудио 2: Английский, AC 3, 448 Кбит/сек, 6 ch (L R C, Side: L R, LFE), 48,0 КГц

pic
«Этот DVD был записан вживую 19 декабря 2001 года в Brixton Academy, London - эксклюзивное живое выступление легенд хэви-метала - редкая концертная видеозапись этого шоу с расширенным набором многих классических песен Priest, а также материал из их последнего альбома Demolition. Кроме того, редкие кадры за кулисами, группа во время проверки звука, интервью и путешествия по миру - этот пакет является обязательным для каждого поклонника Priest и Metal на планете! "
Записано на The Sanctuary Mobile. Смешанный в Sphere Studios, Лондон.
● Дорожка 20: "Demolition Time" - это короткое видео, рассказывающее о выступлении группы Brixton Academy. Tакже включает в себя кадры группы за кулисами и в дороге вместе с короткими выдержками из саундчека и концертных выступлений.
● Дорожка 21: «Lost And Found» использует кадры группы, исполняющей песню во время саундчека со звуком студии, для создания музыкального видео.

В буклете содержатся заметки, касающиеся эпохи и самого выпуска. Также есть полный список гастрольного персонала и его дискография с вокалистом Ripper Owens.

pic
Трэклист
pic
SPV SPV 554-74267 DVD
01. Metal Gods
02. Touch Of Evil
03. Blood Stained
04. Victim Of Changes
05. One on One
06. Running Wild
07. Ripper
08. Diamonds And Rust
09. Feed On Me
10. Burn In Hell
11. Hell Is Home
12. Breaking The Law
13. Desert Plains
14. Turbo Lover
15. Painkiller
16. Electric Eye
17. United
18. Living After Midnight
19. Hell Bent For Leather
Дорожка 20: "Demolition Time"
Дорожка 21: «Lost And Found»

Media Info

Код:

[code]
Общее
Полное имя                               : E:\Convert Music(sergej644)\Judas Priest - Live In London (2002) DVD9\VIDEO_TS\VTS_01_1.VOB
Формат                                   : MPEG-PS
Размер файла                             : 1024 Мбайт
Продолжительность                        : 16 м. 28 с.
Режим общего битрейта                    : Переменный
Общий поток                              : 8692 Кбит/сек

Видео
Идентификатор                            : 224 (0xE0)
Формат                                   : MPEG Video
Версия формата                           : Version 2
Профиль формата                          : [email protected]
Настройки формата                        : CustomMatrix / BVOP
Параметр BVOP формата                    : Да
Параметр матрицы формата                 : Выборочная
Параметр GOP формата                     : Variable
Структура изображения                    : Frame
Продолжительность                        : 16 м. 28 с.
Вид битрейта                             : Переменный
Битрейт                                  : 7847 Кбит/сек
Максимальный битрейт                     : 9800 Кбит/сек
Ширина                                   : 720 пикселей
Высота                                   : 576 пикселей
Соотношение сторон                       : 16:9
Частота кадров                           : 25,000 кадров/сек
Стандарт вещания                         : PAL
Цветовое пространство                    : YUV
Субдискретизация насыщенности            : 4:2:0
Битовая глубина                          : 8 бит
Тип развёртки                            : Чересстрочная
Порядок развёртки                        : Верхнее поле первое
Метод сжатия                             : С потерями
Бит/(Пиксели*Кадры)                      : 0.757
Размер потока                            : 924 Мбайт (90%)

Аудио #1
Идентификатор                            : 189 (0xBD)-128 (0x80)
Формат                                   : AC-3
Формат/Информация                        : Audio Coding 3
Коммерческое название                    : Dolby Digital
Режим смешивания                         : DVD-Video
Продолжительность                        : 16 м. 27 с.
Вид битрейта                             : Постоянный
Битрейт                                  : 224 Кбит/сек
Каналы                                   : 2 канала
ChannelLayout                            : L R
Частота                                  : 48,0 КГц
Частота кадров                           : 31,250 кадров/сек (1536 SPF)
Битовая глубина                          : 16 бит
Метод сжатия                             : С потерями
Размер потока                            : 26,4 Мбайт (3%)
ServiceKind/String                       : Complete Main

Аудио #2
Идентификатор                            : 189 (0xBD)-129 (0x81)
Формат                                   : AC-3
Формат/Информация                        : Audio Coding 3
Коммерческое название                    : Dolby Digital
Режим смешивания                         : DVD-Video
Продолжительность                        : 16 м. 27 с.
Вид битрейта                             : Постоянный
Битрейт                                  : 448 Кбит/сек
Каналы                                   : 6 каналов
ChannelLayout                            : L R C LFE Ls Rs
Частота                                  : 48,0 КГц
Частота кадров                           : 31,250 кадров/сек (1536 SPF)
Битовая глубина                          : 16 бит
Метод сжатия                             : С потерями
Размер потока                            : 52,8 Мбайт (5%)
ServiceKind/String                       : Complete Main

Меню
[/code]
Общее
Полное имя                               : E:\Convert Music(sergej644)\Judas Priest - Live In London (2002) DVD9\VIDEO_TS\VTS_01_2.VOB
Формат                                   : MPEG-PS
Размер файла                             : 1024 Мбайт
Продолжительность                        : 17 м. 1 с.
Режим общего битрейта                    : Переменный
Общий поток                              : 8409 Кбит/сек

Видео
Идентификатор                            : 224 (0xE0)
Формат                                   : MPEG Video
Версия формата                           : Version 2
Профиль формата                          : [email protected]
Настройки формата                        : CustomMatrix / BVOP
Параметр BVOP формата                    : Да
Параметр матрицы формата                 : Выборочная
Параметр GOP формата                     : Variable
Структура изображения                    : Frame
Продолжительность                        : 17 м. 1 с.
Вид битрейта                             : Переменный
Битрейт                                  : 7570 Кбит/сек
Максимальный битрейт                     : 9800 Кбит/сек
Ширина                                   : 720 пикселей
Высота                                   : 576 пикселей
Соотношение сторон                       : 16:9
Частота кадров                           : 25,000 кадров/сек
Стандарт вещания                         : PAL
Цветовое пространство                    : YUV
Субдискретизация насыщенности            : 4:2:0
Битовая глубина                          : 8 бит
Тип развёртки                            : Чересстрочная
Порядок развёртки                        : Верхнее поле первое
Метод сжатия                             : С потерями
Бит/(Пиксели*Кадры)                      : 0.730
Размер потока                            : 921 Мбайт (90%)

Аудио #1
Идентификатор                            : 189 (0xBD)-128 (0x80)
Формат                                   : AC-3
Формат/Информация                        : Audio Coding 3
Коммерческое название                    : Dolby Digital
Режим смешивания                         : DVD-Video
Продолжительность                        : 17 м. 1 с.
Вид битрейта                             : Постоянный
Битрейт                                  : 224 Кбит/сек
Каналы                                   : 2 канала
ChannelLayout                            : L R
Частота                                  : 48,0 КГц
Частота кадров                           : 31,250 кадров/сек (1536 SPF)
Битовая глубина                          : 16 бит
Метод сжатия                             : С потерями
Задержка видео                           : -520 мс.
Размер потока                            : 27,3 Мбайт (3%)
ServiceKind/String                       : Complete Main

Аудио #2
Идентификатор                            : 189 (0xBD)-129 (0x81)
Формат                                   : AC-3
Формат/Информация                        : Audio Coding 3
Коммерческое название                    : Dolby Digital
Режим смешивания                         : DVD-Video
Продолжительность                        : 17 м. 1 с.
Вид битрейта                             : Постоянный
Битрейт                                  : 448 Кбит/сек
Каналы                                   : 6 каналов
ChannelLayout                            : L R C LFE Ls Rs
Частота                                  : 48,0 КГц
Частота кадров                           : 31,250 кадров/сек (1536 SPF)
Битовая глубина                          : 16 бит
Метод сжатия                             : С потерями
Задержка видео                           : -584 мс.
Размер потока                            : 54,5 Мбайт (5%)
ServiceKind/String                       : Complete Main

Меню
[code]
[/code]
Общее
Полное имя                               : E:\Convert Music(sergej644)\Judas Priest - Live In London (2002) DVD9\VIDEO_TS\VTS_01_3.VOB
Формат                                   : MPEG-PS
Размер файла                             : 1024 Мбайт
Продолжительность                        : 19 м. 5 с.
Режим общего битрейта                    : Переменный
Общий поток                              : 7497 Кбит/сек

Видео
Идентификатор                            : 224 (0xE0)
Формат                                   : MPEG Video
Версия формата                           : Version 2
Профиль формата                          : [email protected]
Настройки формата                        : CustomMatrix / BVOP
Параметр BVOP формата                    : Да
Параметр матрицы формата                 : Выборочная
Параметр GOP формата                     : M=3, N=12
Структура изображения                    : Frame
Продолжительность                        : 19 м. 5 с.
Вид битрейта                             : Переменный
Битрейт                                  : 6676 Кбит/сек
Максимальный битрейт                     : 9800 Кбит/сек
Ширина                                   : 720 пикселей
Высота                                   : 576 пикселей
Соотношение сторон                       : 16:9
Частота кадров                           : 25,000 кадров/сек
Стандарт вещания                         : PAL
Цветовое пространство                    : YUV
Субдискретизация насыщенности            : 4:2:0
Битовая глубина                          : 8 бит
Тип развёртки                            : Чересстрочная
Порядок развёртки                        : Верхнее поле первое
Метод сжатия                             : С потерями
Бит/(Пиксели*Кадры)                      : 0.644
Размер потока                            : 911 Мбайт (89%)

Аудио #1
Идентификатор                            : 189 (0xBD)-128 (0x80)
Формат                                   : AC-3
Формат/Информация                        : Audio Coding 3
Коммерческое название                    : Dolby Digital
Режим смешивания                         : DVD-Video
Продолжительность                        : 19 м. 5 с.
Вид битрейта                             : Постоянный
Битрейт                                  : 224 Кбит/сек
Каналы                                   : 2 канала
ChannelLayout                            : L R
Частота                                  : 48,0 КГц
Частота кадров                           : 31,250 кадров/сек (1536 SPF)
Битовая глубина                          : 16 бит
Метод сжатия                             : С потерями
Задержка видео                           : -464 мс.
Размер потока                            : 30,6 Мбайт (3%)
ServiceKind/String                       : Complete Main

Аудио #2
Идентификатор                            : 189 (0xBD)-129 (0x81)
Формат                                   : AC-3
Формат/Информация                        : Audio Coding 3
Коммерческое название                    : Dolby Digital
Режим смешивания                         : DVD-Video
Продолжительность                        : 19 м. 5 с.
Вид битрейта                             : Постоянный
Битрейт                                  : 448 Кбит/сек
Каналы                                   : 6 каналов
ChannelLayout                            : L R C LFE Ls Rs
Частота                                  : 48,0 КГц
Частота кадров                           : 31,250 кадров/сек (1536 SPF)
Битовая глубина                          : 16 бит
Метод сжатия                             : С потерями
Задержка видео                           : -528 мс.
Размер потока                            : 61,2 Мбайт (6%)
ServiceKind/String                       : Complete Main

Меню
[code]
Общее
Полное имя                               : E:\Convert Music(sergej644)\Judas Priest - Live In London (2002) DVD9\VIDEO_TS\VTS_01_4.VOB
Формат                                   : MPEG-PS
Размер файла                             : 1024 Мбайт
Продолжительность                        : 18 м. 49 с.
Режим общего битрейта                    : Переменный
Общий поток                              : 7602 Кбит/сек

Видео
Идентификатор                            : 224 (0xE0)
Формат                                   : MPEG Video
Версия формата                           : Version 2
Профиль формата                          : [email protected]
Настройки формата                        : CustomMatrix / BVOP
Параметр BVOP формата                    : Да
Параметр матрицы формата                 : Выборочная
Параметр GOP формата                     : Variable
Структура изображения                    : Frame
Продолжительность                        : 18 м. 49 с.
Вид битрейта                             : Переменный
Битрейт                                  : 6779 Кбит/сек
Максимальный битрейт                     : 9800 Кбит/сек
Ширина                                   : 720 пикселей
Высота                                   : 576 пикселей
Соотношение сторон                       : 16:9
Частота кадров                           : 25,000 кадров/сек
Стандарт вещания                         : PAL
Цветовое пространство                    : YUV
Субдискретизация насыщенности            : 4:2:0
Битовая глубина                          : 8 бит
Тип развёртки                            : Чересстрочная
Порядок развёртки                        : Верхнее поле первое
Метод сжатия                             : С потерями
Бит/(Пиксели*Кадры)                      : 0.654
Размер потока                            : 913 Мбайт (89%)

Аудио #1
Идентификатор                            : 189 (0xBD)-128 (0x80)
Формат                                   : AC-3
Формат/Информация                        : Audio Coding 3
Коммерческое название                    : Dolby Digital
Режим смешивания                         : DVD-Video
Продолжительность                        : 18 м. 49 с.
Вид битрейта                             : Постоянный
Битрейт                                  : 224 Кбит/сек
Каналы                                   : 2 канала
ChannelLayout                            : L R
Частота                                  : 48,0 КГц
Частота кадров                           : 31,250 кадров/сек (1536 SPF)
Битовая глубина                          : 16 бит
Метод сжатия                             : С потерями
Задержка видео                           : -624 мс.
Размер потока                            : 30,2 Мбайт (3%)
ServiceKind/String                       : Complete Main

Аудио #2
Идентификатор                            : 189 (0xBD)-129 (0x81)
Формат                                   : AC-3
Формат/Информация                        : Audio Coding 3
Коммерческое название                    : Dolby Digital
Режим смешивания                         : DVD-Video
Продолжительность                        : 18 м. 49 с.
Вид битрейта                             : Постоянный
Битрейт                                  : 448 Кбит/сек
Каналы                                   : 6 каналов
ChannelLayout                            : L R C LFE Ls Rs
Частота                                  : 48,0 КГц
Частота кадров                           : 31,250 кадров/сек (1536 SPF)
Битовая глубина                          : 16 бит
Метод сжатия                             : С потерями
Задержка видео                           : -688 мс.
Размер потока                            : 60,3 Мбайт (6%)
ServiceKind/String                       : Complete Main

Меню
[/code]
[code]
Общее
Полное имя                               : E:\Convert Music(sergej644)\Judas Priest - Live In London (2002) DVD9\VIDEO_TS\VTS_01_5.VOB
Формат                                   : MPEG-PS
Размер файла                             : 1024 Мбайт
Продолжительность                        : 18 м. 0 с.
Режим общего битрейта                    : Переменный
Общий поток                              : 7945 Кбит/сек

Видео
Идентификатор                            : 224 (0xE0)
Формат                                   : MPEG Video
Версия формата                           : Version 2
Профиль формата                          : [email protected]
Настройки формата                        : CustomMatrix / BVOP
Параметр BVOP формата                    : Да
Параметр матрицы формата                 : Выборочная
Параметр GOP формата                     : Variable
Структура изображения                    : Frame
Продолжительность                        : 18 м. 0 с.
Вид битрейта                             : Переменный
Битрейт                                  : 7115 Кбит/сек
Максимальный битрейт                     : 9800 Кбит/сек
Ширина                                   : 720 пикселей
Высота                                   : 576 пикселей
Соотношение сторон                       : 16:9
Частота кадров                           : 25,000 кадров/сек
Стандарт вещания                         : PAL
Цветовое пространство                    : YUV
Субдискретизация насыщенности            : 4:2:0
Битовая глубина                          : 8 бит
Тип развёртки                            : Чересстрочная
Порядок развёртки                        : Верхнее поле первое
Метод сжатия                             : С потерями
Бит/(Пиксели*Кадры)                      : 0.686
Размер потока                            : 917 Мбайт (90%)

Аудио #1
Идентификатор                            : 189 (0xBD)-128 (0x80)
Формат                                   : AC-3
Формат/Информация                        : Audio Coding 3
Коммерческое название                    : Dolby Digital
Режим смешивания                         : DVD-Video
Продолжительность                        : 18 м. 0 с.
Вид битрейта                             : Постоянный
Битрейт                                  : 224 Кбит/сек
Каналы                                   : 2 канала
ChannelLayout                            : L R
Частота                                  : 48,0 КГц
Частота кадров                           : 31,250 кадров/сек (1536 SPF)
Битовая глубина                          : 16 бит
Метод сжатия                             : С потерями
Задержка видео                           : -584 мс.
Размер потока                            : 28,9 Мбайт (3%)
ServiceKind/String                       : Complete Main

Аудио #2
Идентификатор                            : 189 (0xBD)-129 (0x81)
Формат                                   : AC-3
Формат/Информация                        : Audio Coding 3
Коммерческое название                    : Dolby Digital
Режим смешивания                         : DVD-Video
Продолжительность                        : 18 м. 0 с.
Вид битрейта                             : Постоянный
Битрейт                                  : 448 Кбит/сек
Каналы                                   : 6 каналов
ChannelLayout                            : L R C LFE Ls Rs
Частота                                  : 48,0 КГц
Частота кадров                           : 31,250 кадров/сек (1536 SPF)
Битовая глубина                          : 16 бит
Метод сжатия                             : С потерями
Задержка видео                           : -648 мс.
Размер потока                            : 57,7 Мбайт (6%)
ServiceKind/String                       : Complete Main

Меню
[/code]
[code]
Общее
Полное имя                               : E:\Convert Music(sergej644)\Judas Priest - Live In London (2002) DVD9\VIDEO_TS\VTS_01_6.VOB
Формат                                   : MPEG-PS
Размер файла                             : 118 Мбайт
Продолжительность                        : 2 м. 7 с.
Режим общего битрейта                    : Переменный
Общий поток                              : 7798 Кбит/сек

Видео
Идентификатор                            : 224 (0xE0)
Формат                                   : MPEG Video
Версия формата                           : Version 2
Профиль формата                          : [email protected]
Настройки формата                        : CustomMatrix / BVOP
Параметр BVOP формата                    : Да
Параметр матрицы формата                 : Выборочная
Параметр GOP формата                     : Variable
Структура изображения                    : Frame
Продолжительность                        : 2 м. 6 с.
Вид битрейта                             : Переменный
Битрейт                                  : 6971 Кбит/сек
Максимальный битрейт                     : 9800 Кбит/сек
Ширина                                   : 720 пикселей
Высота                                   : 576 пикселей
Соотношение сторон                       : 16:9
Частота кадров                           : 25,000 кадров/сек
Стандарт вещания                         : PAL
Цветовое пространство                    : YUV
Субдискретизация насыщенности            : 4:2:0
Битовая глубина                          : 8 бит
Тип развёртки                            : Чересстрочная
Порядок развёртки                        : Верхнее поле первое
Метод сжатия                             : С потерями
Бит/(Пиксели*Кадры)                      : 0.672
Размер потока                            : 105 Мбайт (89%)

Аудио #1
Идентификатор                            : 189 (0xBD)-128 (0x80)
Формат                                   : AC-3
Формат/Информация                        : Audio Coding 3
Коммерческое название                    : Dolby Digital
Режим смешивания                         : DVD-Video
Продолжительность                        : 2 м. 7 с.
Вид битрейта                             : Постоянный
Битрейт                                  : 224 Кбит/сек
Каналы                                   : 2 канала
ChannelLayout                            : L R
Частота                                  : 48,0 КГц
Частота кадров                           : 31,250 кадров/сек (1536 SPF)
Битовая глубина                          : 16 бит
Метод сжатия                             : С потерями
Задержка видео                           : -552 мс.
Размер потока                            : 3,39 Мбайт (3%)
ServiceKind/String                       : Complete Main

Аудио #2
Идентификатор                            : 189 (0xBD)-129 (0x81)
Формат                                   : AC-3
Формат/Информация                        : Audio Coding 3
Коммерческое название                    : Dolby Digital
Режим смешивания                         : DVD-Video
Продолжительность                        : 2 м. 7 с.
Вид битрейта                             : Постоянный
Битрейт                                  : 448 Кбит/сек
Каналы                                   : 6 каналов
ChannelLayout                            : L R C LFE Ls Rs
Частота                                  : 48,0 КГц
Частота кадров                           : 31,250 кадров/сек (1536 SPF)
Битовая глубина                          : 16 бит
Метод сжатия                             : С потерями
Задержка видео                           : -584 мс.
Размер потока                            : 6,78 Мбайт (6%)
ServiceKind/String                       : Complete Main

Меню
[/code]
[code]
Общее
Полное имя                               : E:\Convert Music(sergej644)\Judas Priest - Live In London (2002) DVD9\VIDEO_TS\VTS_02_1.VOB
Формат                                   : MPEG-PS
Размер файла                             : 1024 Мбайт
Продолжительность                        : 16 м. 30 с.
Режим общего битрейта                    : Переменный
Общий поток                              : 8669 Кбит/сек

Видео
Идентификатор                            : 224 (0xE0)
Формат                                   : MPEG Video
Версия формата                           : Version 2
Профиль формата                          : [email protected]
Настройки формата                        : CustomMatrix / BVOP
Параметр BVOP формата                    : Да
Параметр матрицы формата                 : Выборочная
Параметр GOP формата                     : M=3, N=12
Структура изображения                    : Frame
Продолжительность                        : 16 м. 30 с.
Вид битрейта                             : Переменный
Битрейт                                  : 8272 Кбит/сек
Максимальный битрейт                     : 9800 Кбит/сек
Ширина                                   : 720 пикселей
Высота                                   : 576 пикселей
Соотношение сторон                       : 16:9
Частота кадров                           : 25,000 кадров/сек
Стандарт вещания                         : PAL
Цветовое пространство                    : YUV
Субдискретизация насыщенности            : 4:2:0
Битовая глубина                          : 8 бит
Тип развёртки                            : Чересстрочная
Порядок развёртки                        : Верхнее поле первое
Метод сжатия                             : С потерями
Бит/(Пиксели*Кадры)                      : 0.798
Размер потока                            : 977 Мбайт (95%)

Аудио
Идентификатор                            : 189 (0xBD)-128 (0x80)
Формат                                   : AC-3
Формат/Информация                        : Audio Coding 3
Коммерческое название                    : Dolby Digital
Режим смешивания                         : DVD-Video
Продолжительность                        : 16 м. 30 с.
Вид битрейта                             : Постоянный
Битрейт                                  : 224 Кбит/сек
Каналы                                   : 2 канала
ChannelLayout                            : L R
Частота                                  : 48,0 КГц
Частота кадров                           : 31,250 кадров/сек (1536 SPF)
Битовая глубина                          : 16 бит
Метод сжатия                             : С потерями
Размер потока                            : 26,5 Мбайт (3%)
ServiceKind/String                       : Complete Main

Меню
[/code]
[code]
Общее
Полное имя                               : E:\Convert Music(sergej644)\Judas Priest - Live In London (2002) DVD9\VIDEO_TS\VTS_03_1.VOB
Формат                                   : MPEG-PS
Размер файла                             : 1024 Мбайт
Продолжительность                        : 18 м. 41 с.
Режим общего битрейта                    : Переменный
Общий поток                              : 7655 Кбит/сек

Видео
Идентификатор                            : 224 (0xE0)
Формат                                   : MPEG Video
Версия формата                           : Version 2
Профиль формата                          : [email protected]
Настройки формата                        : CustomMatrix / BVOP
Параметр BVOP формата                    : Да
Параметр матрицы формата                 : Выборочная
Параметр GOP формата                     : M=3, N=12
Структура изображения                    : Frame
Продолжительность                        : 18 м. 41 с.
Вид битрейта                             : Переменный
Битрейт                                  : 7279 Кбит/сек
Максимальный битрейт                     : 9800 Кбит/сек
Ширина                                   : 720 пикселей
Высота                                   : 576 пикселей
Соотношение сторон                       : 16:9
Частота кадров                           : 25,000 кадров/сек
Стандарт вещания                         : PAL
Цветовое пространство                    : YUV
Субдискретизация насыщенности            : 4:2:0
Битовая глубина                          : 8 бит
Тип развёртки                            : Чересстрочная
Порядок развёртки                        : Верхнее поле первое
Метод сжатия                             : С потерями
Бит/(Пиксели*Кадры)                      : 0.702
Размер потока                            : 974 Мбайт (95%)

Аудио
Идентификатор                            : 189 (0xBD)-128 (0x80)
Формат                                   : AC-3
Формат/Информация                        : Audio Coding 3
Коммерческое название                    : Dolby Digital
Режим смешивания                         : DVD-Video
Продолжительность                        : 18 м. 41 с.
Вид битрейта                             : Постоянный
Битрейт                                  : 224 Кбит/сек
Каналы                                   : 2 канала
ChannelLayout                            : L R
Частота                                  : 48,0 КГц
Частота кадров                           : 31,250 кадров/сек (1536 SPF)
Битовая глубина                          : 16 бит
Метод сжатия                             : С потерями
Размер потока                            : 30,0 Мбайт (3%)
ServiceKind/String                       : Complete Main

Меню
[/code]

pic
Скриншоты меню
Скриншоты


pic
pic
Judas Priest - Live In London (2002) DVD9.torrent
Трекер: Зарегистрирован

magnet ссылка

 


Скачать .torrent

21 KB

Статус: проверено (by E IL o T IR i X в 22-Ноя-19 23:33)
Зарегистрирован: 22-Ноя-19 21:49
Скачан: 2 раза
Размер: 7.75 GB | 
Поблагодарили:
Скачать Judas Priest - Live In London [2002, Heavy Metal, DVD9] торрент
 


Похожие раздачи

Текущее время: 08-Дек 03:54

Часовой пояс: GMT + 3



Вы не можете начинать темы
Вы не можете отвечать на сообщения
Вы не можете редактировать свои сообщения
Вы не можете удалять свои сообщения
Вы не можете голосовать в опросах
Вы не можете прикреплять файлы к сообщениям
Вы не можете скачивать файлы