Loading...
Error
 

Скачать торрент (Synthwave / Darksynth / Electronic) Hoffman Cruise - Odyssey (2020) [FLAC, (tracks), lossless]

 
Автор Сообщение

Слава2312

post 05-Фев-20 16:29

pic


pic

Жанр: Synthwave / Darksynth / Electronic
Год издания данного носителя: 2020
Страна-производитель носителя: US
Лейбл: Not On Label (Hoffman Cruise Self-released)
Каталоговый номер: none
Аудио кодек: FLAC
Тип рипа: tracks
Битрейт аудио: lossless
Продолжительность: 00:35:28
Источник (релизер): WEB
Для ознакомления:
pic pic
Треклист:
[3:15] 01. Hoffman Cruise - Sirens Dance
[3:23] 02. Hoffman Cruise - Cyclops
[3:33] 03. Hoffman Cruise - Shoot Her
[3:31] 04. Hoffman Cruise - Run for Cover
[3:47] 05. Hoffman Cruise - Charybdis
[2:53] 06. Hoffman Cruise - Scylla
[3:16] 07. Hoffman Cruise - Calypso
[4:27] 08. Hoffman Cruise - Through the Rocks
[3:37] 09. Hoffman Cruise - I Won't Come Back
[3:45] 10. Hoffman Cruise - Dead Calm
AUDIOCHECKER

Код:



AUDIOCHECKER v2.0 beta (build 457) - by Dester
~~~~~~~~~~~~~~~~~~~~~~~~~~~~~~~~~~
-=== НЕ РЕДАКТИРУЙТЕ ЭТОТ ФАЙЛ! ===-

Путь: ...\Hoffman Cruise - Odyssey [2020] Flac

01 -=- 01-Sirens Dance.flac -=- CDDA (100%)
02 -=- 02-Cyclops.flac -=- MPEG (95%)
03 -=- 03-Shoot Her.flac -=- CDDA (100%)
04 -=- 04-Run For Cover.flac -=- CDDA (100%)
05 -=- 05-Charybdis.flac -=- CDDA (100%)
06 -=- 06-Scylla.flac -=- CDDA (100%)
07 -=- 07-Calypso.flac -=- CDDA (100%)
08 -=- 08-Through The Rocks.flac -=- CDDA (100%)
09 -=- 09-I Won't Come Back.flac -=- CDDA (100%)
10 -=- 10-Dead Calm.flac -=- CDDA (99%)

Сводка 90,40% CDDA

47429268

Замер динамического диапазона (DR)

Код:



foobar2000 1.4.1 / Замер динамического диапазона (DR) 1.1.1
Дата отчёта:    2020-05-09 17:15:11

--------------------------------------------------------------------------------
Анализ:   Hoffman Cruise / Odyssey
--------------------------------------------------------------------------------

DR         Пики         RMS           Продолжительность трека
--------------------------------------------------------------------------------
DR6       -0.21 дБ    -7.62 дБ      3:15 01-Sirens Dance
DR6       -0.21 дБ    -7.79 дБ      3:23 02-Cyclops
DR6       -0.21 дБ    -7.40 дБ      3:33 03-Shoot Her
DR7       -0.21 дБ    -8.93 дБ      3:31 04-Run for Cover
DR6       -0.21 дБ    -7.82 дБ      3:47 05-Charybdis
DR6       -0.21 дБ    -6.94 дБ      2:53 06-Scylla
DR7       -0.21 дБ    -7.74 дБ      3:16 07-Calypso
DR7       -0.21 дБ    -7.72 дБ      4:27 08-Through the Rocks
DR7       -0.21 дБ    -7.98 дБ      3:37 09-I Won't Come Back
DR7       -0.21 дБ    -8.26 дБ      3:45 10-Dead Calm
--------------------------------------------------------------------------------

Количество треков:  10
Реальные значения DR:  DR6

Частота:      44100 Гц
Каналов:      2
Разрядность:     16
Битрейт:      930 кбит/с
Кодек:      FLAC
================================================================================

Спектрограммы
pic
Hoffman Cruise - Odyssey (2020) Flac.torrent
Трекер: Зарегистрирован

magnet ссылка

 


Скачать .torrent

20 KB

Статус: проверено (by Snowden в 09-Май-20 17:34)
Зарегистрирован: 09-Май-20 16:26
Скачан: 83 раза
Размер: 250 MB | 
Поблагодарили:
Скачать (Synthwave / Darksynth / Electronic) Hoffman Cruise - Odyssey (2020) [FLAC, (tracks), lossless] торрент
Hellish journey through the ancient mythology with the perfect dark cyber vibe. I felt it and I loved it.
 


Похожие раздачи

~Dimitrius~

post 05-Фев-20 17:23 (спустя 53 минуты)

Хороший альбом

Слава2312

post 09-Май-20 16:30 (спустя 3 месяца 3 дня)

Раздача обновлена до Lossless.

Zyiok

post 10-Май-20 14:02 (спустя 21 час)

Звучит круто. И ещё это наши, русские. В вк группа есть, и автор обложки Yaroslav Yarky

Слава2312

post 11-Май-20 21:15 (спустя 1 день 7 часов)

Ц Zyiok писал(а):

И ещё это наши, русские.
А этот парень с Украины, но лейбл Российский.
Пункт называется: Страна-производитель носителя
Заходим на hoffmancruise.bandcamp
И видим там
pic
Как-то так. =)

barmaglot

post 19-Май-20 05:09 (спустя 7 дней)

Я то думал, что для меня Lost Years никто и ничто не переплюнет...
Но в synth/darksynt подмешать ложечку...половник(!) металла - это смело.
Очень "наваристо" получилось.

Текущее время: 03-Июн 09:04

Часовой пояс: GMT + 3



Вы не можете начинать темы
Вы не можете отвечать на сообщения
Вы не можете редактировать свои сообщения
Вы не можете удалять свои сообщения
Вы не можете голосовать в опросах
Вы не можете прикреплять файлы к сообщениям
Вы не можете скачивать файлы