Loading...
Error
 

Скачать торрент Тэнти - лишний! Ночь перед Карнавалом / Tenchi Muyo! Omatsuri Zenjitsu no Yoru! / Tenchi Muyo! The Night Before The Carnival (Ятагай Кэнъити) [OVA][RAW][RUS(int) + JAP + SUB(int)][1993 г., комедия, романтика, фантастика, этти][BDRip][1080p] MVO

 
Автор Сообщение

ReBootRus

post 15-Мар-20 08:43

pic
Тэнти - лишний! Ночь перед Карнавалом
Tenchi Muyo! Omatsuri Zenjitsu no Yoru! | Tenchi Muyo! The Night Before The Carnival

Год выпуска: 25.09.1993
Страна: Япония
Жанр: комедия, романтика, фантастика, этти
Тип: OVA
Продолжительность: 00:43:17
Режиссер: Ятагай Кэнъити
Автор оригинала: Кадзисима Масаки
Студия: pic
Озвучка: Многоголосая, студия pic (г. Тула), 2019г.
На русский роли озвучивали: Александр Аносов, Мария Яковлева, Глеб Янышев, Евгения Андрианова, Никита Кузнецов, Мария Лебедева, Евгений Бородаенко, Альбина Штанина, Анастасия Чукунова, Екатерина Филина и Павел Тимонин.
Сведение и мастеринг: Александр Шмат.
pic
Перевод:
русские субтитры Dragon'Drop (.srt) - полные
английские субтитры THORA (.ass)
Описание:
Через несколько дней после поражения Кагато всё возвращается на свои места. Рёко застаёт Михоси и Сасами читающими сёдзё-мангу, в которой, по словам Сасами, рассказывается, как победить мужчину с помощью стиля Земли. Тогда Рёко решает использовать идеи из манги для победы над Тэнти. Аэка понимает это и тоже начинает использовать приёмы из манги для победы над Тэнти. © Whitie, «Shikimori.org»
Информационные ссылки: pic || pic || pic || pic
Релиз/Энкод: Koten Gars
Качество: BDRip 1080p
Тип видео: без хардсаба
Формат: mkv
Видео: H.264/AVC, 8-bit, 1448x1052 (1,375:1), 23,976 кадр/с, 19,6 Мбит/с
Аудио RUS 3df_voice: FLAC, 48 kHz, 853 Kбит/с, 2 ch
Аудио JAP: FLAC, 48 kHz, 1412 Kбит/с, 2 ch
Скриншоты
Подробные тех. данные

Код:

Общее
Уникальный идентификатор                 : 44264469060045662658064160281433109553 (0x214D06D21BFF1CC588D614247D4A7431)
Полное имя                               : Tenchi Muyo! Ryo-Ohki OVA [3df_voice]\Tenchi Muyo! Ryo-Ohki OVA-I 07 [3df_voice].mkv
Формат                                   : Matroska
Версия формата                           : Version 4
Размер файла                             : 6,61 Гбайт
Продолжительность                        : 43 м. 17 с.
Режим общего битрейта                    : Переменный
Общий поток                              : 21,9 Мбит/сек
Название фильма                          : 7 - The Night Before the Carnival
Дата кодирования                         : UTC 2020-03-14 13:17:41
Программа кодирования                    : mkvmerge v44.0.0 ('Domino') 64-bit
Библиотека кодирования                   : libebml v1.3.10 + libmatroska v1.5.2

Видео
Идентификатор                            : 1
Формат                                   : AVC
Формат/Информация                        : Advanced Video Codec
Профиль формата                          : [email protected]
Настройки формата                        : CABAC / 4 Ref Frames
Параметр CABAC формата                   : Да
Параметр RefFrames формата               : 4 кадра
Идентификатор кодека                     : V_MPEG4/ISO/AVC
Продолжительность                        : 43 м. 17 с.
Битрейт                                  : 19,6 Мбит/сек
Ширина                                   : 1448 пикселей
Высота                                   : 1052 пикселя
Соотношение сторон                       : 1,376
Режим частоты кадров                     : Постоянный
Частота кадров                           : 23,976 (24000/1001) кадра/сек
Цветовое пространство                    : YUV
Субдискретизация насыщенности            : 4:2:0
Битовая глубина                          : 8 бит
Тип развёртки                            : Прогрессивная
Бит/(Пиксели*Кадры)                      : 0.537
Размер потока                            : 5,93 Гбайт (90%)
Библиотека кодирования                   : x264 core 148 r2705 3f5ed56
Настройки программы                      : cabac=1 / ref=3 / deblock=1:-1:-1 / analyse=0x1:0x111 / me=hex / subme=7 / psy=1 / psy_rd=1.00:0.15 / mixed_ref=1 / me_range=16 / chroma_me=1 / trellis=1 / 8x8dct=0 / cqm=0 / deadzone=21,11 / fast_pskip=1 / chroma_qp_offset=-3 / threads=12 / lookahead_threads=2 / sliced_threads=0 / nr=0 / decimate=1 / interlaced=0 / bluray_compat=0 / constrained_intra=0 / bframes=3 / b_pyramid=2 / b_adapt=1 / b_bias=0 / direct=1 / weightb=1 / open_gop=0 / weightp=2 / keyint=240 / keyint_min=24 / scenecut=40 / intra_refresh=0 / rc_lookahead=40 / rc=crf / mbtree=1 / crf=17.0 / qcomp=0.60 / qpmin=0 / qpmax=69 / qpstep=4 / vbv_maxrate=20000 / vbv_bufsize=25000 / crf_max=0.0 / nal_hrd=none / filler=0 / ip_ratio=1.40 / aq=1:1.00
Default                                  : Да
Forced                                   : Нет
Цветовой диапазон                        : Limited
Основные цвета                           : BT.709
Характеристики трансфера                 : BT.709
Коэффициенты матрицы                     : BT.709

Аудио #1
Идентификатор                            : 2
Формат                                   : FLAC
Формат/Информация                        : Free Lossless Audio Codec
Идентификатор кодека                     : A_FLAC
Продолжительность                        : 43 м. 17 с.
Вид битрейта                             : Переменный
Битрейт                                  : 853 Кбит/сек
Каналы                                   : 2 канала
ChannelLayout                            : L R
Частота                                  : 48,0 КГц
Частота кадров                           : 41,667 кадра/сек (1152 SPF)
Битовая глубина                          : 16 бит
Метод сжатия                             : Без потерь
Размер потока                            : 264 Мбайт (4%)
Заголовок                                : 3df_voice
Библиотека кодирования                   : libFLAC 1.3.0 (UTC 2013-05-26)
Язык                                     : Russian
Default                                  : Да
Forced                                   : Нет

Аудио #2
Идентификатор                            : 3
Формат                                   : FLAC
Формат/Информация                        : Free Lossless Audio Codec
Идентификатор кодека                     : A_FLAC
Продолжительность                        : 43 м. 17 с.
Вид битрейта                             : Переменный
Битрейт                                  : 1412 Кбит/сек
Каналы                                   : 2 канала
ChannelLayout                            : L R
Частота                                  : 48,0 КГц
Частота кадров                           : 10,417 кадров/сек (4608 SPF)
Битовая глубина                          : 24 бит
Метод сжатия                             : Без потерь
Размер потока                            : 437 Мбайт (6%)
Заголовок                                : Stereo
Язык                                     : Japanese
Default                                  : Нет
Forced                                   : Нет

Текст #1
Идентификатор                            : 4
Формат                                   : UTF-8
Идентификатор кодека                     : S_TEXT/UTF8
Идентификатор кодека/Информация          : UTF-8 Plain Text
Продолжительность                        : 39 м. 5 с.
Битрейт                                  : 90 бит/сек
ElementCount                             : 558
Размер потока                            : 26,0 Кбайт (0%)
Заголовок                                : Dragon'Drop
Язык                                     : Russian
Default                                  : Нет
Forced                                   : Нет

Текст #2
Идентификатор                            : 5
Формат                                   : ASS
Идентификатор кодека                     : S_TEXT/ASS
Идентификатор кодека/Информация          : Advanced Sub Station Alpha
Продолжительность                        : 39 м. 5 с.
Битрейт                                  : 90 бит/сек
ElementCount                             : 560
Метод сжатия                             : Без потерь
Размер потока                            : 25,9 Кбайт (0%)
Заголовок                                : THORA - Dialogue
Язык                                     : English
Default                                  : Нет
Forced                                   : Нет

Меню
00:00:00.000                             : :Chapter 1
00:01:42.102                             : :Chapter 2
00:12:12.649                             : :Chapter 3
00:22:49.910                             : :Chapter 4
00:32:22.274                             : :Chapter 5
00:41:10.009                             : :Chapter 6
Tenchi Muyo! Ryo-Ohki OVA-I 07 (3df_voice).mkv.torrent
 СЕРЕБРЯНАЯ РАЗДАЧА! СКАЧАННОЕ ЗАСЧИТЫВАЕТСЯ ТОЛЬКО НАПОЛОВИНУ! 
Вечный
Трекер: Зарегистрирован

magnet ссылка

 


Скачать .torrent

17 KB

Статус: проверено (by ilyash_rekviem в 15-Мар-20 12:14)
Зарегистрирован: 15-Мар-20 08:43
Скачан: 0 раз
Размер: 6.61 GB | 
Поблагодарили:
Скачать Тэнти - лишний! Ночь перед Карнавалом / Tenchi Muyo! Omatsuri Zenjitsu no Yoru! / Tenchi Muyo! The Night Before The Carnival (Ятагай Кэнъити) [OVA][RAW][RUS(int) + JAP + SUB(int)][1993 г., комедия, романтика, фантастика, этти][BDRip][1080p] MVO торрент
 


Похожие раздачи

Текущее время: 04-Апр 19:59

Часовой пояс: GMT + 3



Вы не можете начинать темы
Вы не можете отвечать на сообщения
Вы не можете редактировать свои сообщения
Вы не можете удалять свои сообщения
Вы не можете голосовать в опросах
Вы не можете прикреплять файлы к сообщениям
Вы не можете скачивать файлы