Loading...
Error
 
Мини-чат
 

Скачать торрент (Symphonic, Progressive Power Metal) Serenity - The Last Knight - 2020 [FLAC, image +.cue, lossless]

 
Автор Сообщение

trygg

post 26-Мар-20 13:28


Serenity - The Last Knight


pic
Год издания: 2020
Страна: Austria pic
Жанр: Symphonic, Progressive Power Metal
Продолжительность: 00:51:51
Лейбл издания: Napalm Records
Страна-выпуска диска: Germany pic
Номер по каталогу: NPR 920 DP
Формат: FLAC
Битрейт аудио: Lossless
Тип рипа: image +.cue
Наличие сканов в содержимом раздачи: да

pic
Трэклист
pic
pic
01. The Last Knight (2:03)
02. Invictus (4:19)
03. Set The World On Fire (4:26)
04. Keeper Of The Knights (4:43)
05. Souls And Sins (4:40)
06. My Kingdom Comes (4:33)
07. Queen Of Avalon (4:32)
08. My Farewell (4:54)
09. Down To Hell (4:41)
10. Wings Of Pride (4:04)
11. Call To Arms (4:22)
12. Souls And Sins (Acoustic Version) (4:35)
pic

pic
Лог создания рипа

Код:

Exact Audio Copy V1.4 from 3. February 2020

EAC extraction logfile from 22. February 2020, 8:21

Serenity / The Last Knight

Used drive  : ASUS    DRW-24B3ST   Adapter: 2  ID: 0

Read mode : Burst

Read offset correction                      : 6
Overread into Lead-In and Lead-Out          : No
Fill up missing offset samples with silence : Yes
Delete leading and trailing silent blocks   : No
Null samples used in CRC calculations       : Yes
Used interface                              : Installed external ASPI interface

Used output format              : User Defined Encoder
Selected bitrate                : 1024 kBit/s
Quality                         : High
Add ID3 tag                     : No
Command line compressor         : C:\Program Files (x86)\Exact Audio Copy\FLAC\FLAC.EXE
Additional command line options : -V -8 -T "Date=%year%" -T "Genre=%genre%" -T"COMMENT=CDRip for me-4u.com" -8 -V %source%

TOC of the extracted CD

     Track |   Start  |  Length  | Start sector | End sector
    ---------------------------------------------------------
        1  |  0:00.00 |  2:02.53 |         0    |     9202
        2  |  2:02.53 |  4:18.73 |      9203    |    28625
        3  |  6:21.51 |  4:25.65 |     28626    |    48565
        4  | 10:47.41 |  4:42.67 |     48566    |    69782
        5  | 15:30.33 |  4:39.46 |     69783    |    90753
        6  | 20:10.04 |  4:33.26 |     90754    |   111254
        7  | 24:43.30 |  4:31.64 |    111255    |   131643
        8  | 29:15.19 |  4:54.00 |    131644    |   153693
        9  | 34:09.19 |  4:40.56 |    153694    |   174749
       10  | 38:50.00 |  4:04.00 |    174750    |   193049
       11  | 42:54.00 |  4:22.18 |    193050    |   212717
       12  | 47:16.18 |  4:35.00 |    212718    |   233342

Range status and errors

Selected range

     Filename C:\CDRip\Serenity - The Last Knight.wav

     Peak level 99.9 %
     Extraction speed 22.1 X
     Test CRC E45894B6
     Copy CRC B9DE8B65
     Copy OK

No errors occurred

AccurateRip summary

Track  1  not present in database
Track  2  not present in database
Track  3  not present in database
Track  4  not present in database
Track  5  not present in database
Track  6  not present in database
Track  7  not present in database
Track  8  not present in database
Track  9  not present in database
Track 10  not present in database
Track 11  not present in database
Track 12  not present in database

None of the tracks are present in the AccurateRip database

End of status report
Индексная карта (non-compilant .cue)

Код:

REM GENRE "Symphonic Power Metal"
REM DATE 2020
REM DISCID 9F0C270C
REM COMMENT "ExactAudioCopy v1.4"
PERFORMER "Serenity"
TITLE "The Last Knight"
REM COMPOSER "Serenity"
FILE "Serenity - The Last Knight.flac" WAVE
  TRACK 01 AUDIO
    TITLE "The Last Knight"
    PERFORMER "Serenity"
    REM COMPOSER "Serenity"
    ISRC ATN261992001
    INDEX 01 00:00:00
  TRACK 02 AUDIO
    TITLE "Invictus"
    PERFORMER "Serenity"
    REM COMPOSER "Serenity"
    ISRC ATN261992002
    INDEX 01 02:02:53
  TRACK 03 AUDIO
    TITLE "Set The World On Fire"
    PERFORMER "Serenity"
    REM COMPOSER "Serenity"
    ISRC ATN261992003
    INDEX 01 06:21:51
  TRACK 04 AUDIO
    TITLE "Keeper Of The Knights"
    PERFORMER "Serenity"
    REM COMPOSER "Serenity"
    ISRC ATN261992004
    INDEX 00 10:47:32
    INDEX 01 10:47:41
  TRACK 05 AUDIO
    TITLE "Souls And Sins"
    PERFORMER "Serenity"
    REM COMPOSER "Serenity"
    ISRC ATN261992005
    INDEX 01 15:30:33
  TRACK 06 AUDIO
    TITLE "My Kingdom Comes"
    PERFORMER "Serenity"
    REM COMPOSER "Serenity"
    ISRC ATN261992006
    INDEX 01 20:10:04
  TRACK 07 AUDIO
    TITLE "Queen Of Avalon"
    PERFORMER "Serenity"
    REM COMPOSER "Serenity"
    ISRC ATN261992007
    INDEX 01 24:43:30
  TRACK 08 AUDIO
    TITLE "My Farewell"
    PERFORMER "Serenity"
    REM COMPOSER "Serenity"
    ISRC ATN261992008
    INDEX 01 29:15:19
  TRACK 09 AUDIO
    TITLE "Down To Hell"
    PERFORMER "Serenity"
    REM COMPOSER "Serenity"
    ISRC ATN261992009
    INDEX 01 34:09:19
  TRACK 10 AUDIO
    TITLE "Wings Of Pride"
    PERFORMER "Serenity"
    REM COMPOSER "Serenity"
    ISRC ATN261992010
    INDEX 01 38:50:00
  TRACK 11 AUDIO
    TITLE "Call To Arms"
    PERFORMER "Serenity"
    REM COMPOSER "Serenity"
    ISRC ATN261992011
    INDEX 01 42:54:00
  TRACK 12 AUDIO
    TITLE "Souls And Sins (Acoustic Version)"
    PERFORMER "Serenity"
    REM COMPOSER "Serenity"
    ISRC ATN261992012
    INDEX 01 47:16:18

pic
для ознакомления:


pic
pic
Serenity - The Last Knight (Napalm Records, NPR 920 DP, Replica) (2020).torrent
Трекер: Зарегистрирован

magnet ссылка

 


Скачать .torrent

19 KB

Статус: проверено (by E IL o T IR i X в 26-Мар-20 13:51)
Зарегистрирован: 26-Мар-20 13:28
Скачан: 14 раз
Размер: 465 MB | 
Поблагодарили:
Скачать (Symphonic, Progressive Power Metal) Serenity - The Last Knight - 2020 [FLAC, image +.cue, lossless] торрент
 


Похожие раздачи

Текущее время: 15-Июл 08:55

Часовой пояс: GMT + 3



Вы не можете начинать темы
Вы не можете отвечать на сообщения
Вы не можете редактировать свои сообщения
Вы не можете удалять свои сообщения
Вы не можете голосовать в опросах
Вы не можете прикреплять файлы к сообщениям
Вы не можете скачивать файлы