Loading...
Error
 
Мини-чат
 

Скачать торрент (Pop) Meghan Trainor - Treat Myselff (Target Exclusive) - 2020, [FLAC, tracks +.cue, lossless]



 
Автор Сообщение

Myster_Ya

post 23-Апр-20 15:39

pic
Meghan Trainor - reat Myselff (Target Exclusive)

Год издания: 2020
Жанр: Pop
Продолжительность: 00:52:24
Лейбл издания: Epic - Sony Music‎
Страна-выпуска диска: EU
Номер по каталогу: 19439714022
Формат: FLAC
Битрейт аудио: Lossless
Тип рипа: tracks+.cue
Источник: скачано из сети
Наличие сканов в содержимом раздачи: нет
Треклист
01. Wave (Feat. Mike Sabath) (02:57)
02. Nice To Meet Ya (Feat. Nicki Minaj) (03:17)
03. Funk (03:12)
04. Babygirl (03:20)
05. Workin' On It (Feat. Lennon Stella & Sasha Sloan) (03:01)
06. Ashes (03:18)
07. Lie To Me (02:40)
08. Here To Stay (03:04)
09. Blink (02:47)
10. Genetics (Feat. The Pussycat Dolls) (02:58)
11. Evil Twin (03:12)
12. After You (Feat. AJ Mitchell) (03:26)
13. Another Opinion (03:04)
14. No Excuses (02:33)
15. Have You Now (03:46)
16. All The Ways (Target Exclusive Bonus Track) (2:55)
17. Treat Myself (Target Exclusive Bonus Track) (2:54)
Лог создания рипа
Exact Audio Copy V1.1 from 23. June 2015

EAC extraction logfile from 6. February 2020, 1:05

Meghan Trainor / Treat Myself

Used drive : MATSHITADVD-RAM UJ8HC Adapter: 1 ID: 0

Read mode : Secure
Utilize accurate stream : Yes
Defeat audio cache : Yes
Make use of C2 pointers : No

Read offset correction : 6
Overread into Lead-In and Lead-Out : No
Fill up missing offset samples with silence : Yes
Delete leading and trailing silent blocks : No
Null samples used in CRC calculations : Yes
Used interface : Native Win32 interface for Win NT & 2000
Gap handling : Appended to previous track

Used output format : User Defined Encoder
Selected bitrate : 1024 kBit/s
Quality : High
Add ID3 tag : No
Command line compressor : C:\Program Files (x86)\Exact Audio Copy\FLAC\FLAC.EXE
Additional command line options : -8 -V -T "ARTIST=%artist%" -T "TITLE=%title%" -T "ALBUM=%albumtitle%" -T "DATE=%year%" -T "TRACKNUMBER=%tracknr%" -T "GENRE=%genre%" -T "PERFORMER=%albuminterpret%" -T "COMPOSER=%composer%" %haslyrics%--tag-from-file=LYRICS="%lyricsfile%"%haslyrics% -T "ALBUMARTIST=%albumartist%" -T "DISCNUMBER=%cdnumber%" -T "TOTALDISCS=%totalcds%" -T "TOTALTRACKS=%numtracks%" -T "COMMENT=%comment%" %source% -o %dest%

TOC of the extracted CD

Track | Start | Length | Start sector | End sector
---------------------------------------------------------
1 | 0:00.00 | 2:56.71 | 0 | 13270
2 | 2:56.71 | 3:17.00 | 13271 | 28045
3 | 6:13.71 | 3:11.45 | 28046 | 42415
4 | 9:25.41 | 3:20.00 | 42416 | 57415
5 | 12:45.41 | 3:01.22 | 57416 | 71012
6 | 15:46.63 | 3:17.59 | 71013 | 85846
7 | 19:04.47 | 2:40.15 | 85847 | 97861
8 | 21:44.62 | 3:03.64 | 97862 | 111650
9 | 24:48.51 | 2:47.13 | 111651 | 124188
10 | 27:35.64 | 2:57.61 | 124189 | 137524
11 | 30:33.50 | 3:12.05 | 137525 | 151929
12 | 33:45.55 | 3:26.27 | 151930 | 167406
13 | 37:12.07 | 3:03.73 | 167407 | 181204
14 | 40:16.05 | 2:32.65 | 181205 | 192669
15 | 42:48.70 | 3:46.30 | 192670 | 209649
16 | 46:35.25 | 2:55.17 | 209650 | 222791
17 | 49:30.42 | 2:53.59 | 222792 | 235825

Track 1

Filename H:\My Storage\Music\New Lossless Rips\Pop\Meghan Trainor (My Own 100% FLAC Rips)\(2020) Treat Yourself {Target Exclusive}\01 - Wave.wav

Pre-gap length 0:00:02.00

Peak level 94.4 %
Extraction speed 2.0 X
Track quality 99.9 %
Test CRC 6CA5C509
Copy CRC 6CA5C509
Track not present in AccurateRip database
Copy OK

Track 2

Filename H:\My Storage\Music\New Lossless Rips\Pop\Meghan Trainor (My Own 100% FLAC Rips)\(2020) Treat Yourself {Target Exclusive}\02 - Nice to Meet Ya.wav

Peak level 99.3 %
Extraction speed 2.8 X
Track quality 100.0 %
Test CRC 0AAA7678
Copy CRC 0AAA7678
Track not present in AccurateRip database
Copy OK

Track 3

Filename H:\My Storage\Music\New Lossless Rips\Pop\Meghan Trainor (My Own 100% FLAC Rips)\(2020) Treat Yourself {Target Exclusive}\03 - Funk.wav

Peak level 95.6 %
Extraction speed 3.0 X
Track quality 100.0 %
Test CRC FCF88424
Copy CRC FCF88424
Track not present in AccurateRip database
Copy OK

Track 4

Filename H:\My Storage\Music\New Lossless Rips\Pop\Meghan Trainor (My Own 100% FLAC Rips)\(2020) Treat Yourself {Target Exclusive}\04 - Babygirl.wav

Peak level 99.9 %
Extraction speed 3.2 X
Track quality 100.0 %
Test CRC 3097C499
Copy CRC 3097C499
Track not present in AccurateRip database
Copy OK

Track 5

Filename H:\My Storage\Music\New Lossless Rips\Pop\Meghan Trainor (My Own 100% FLAC Rips)\(2020) Treat Yourself {Target Exclusive}\05 - Workin' on It.wav

Peak level 99.8 %
Extraction speed 3.3 X
Track quality 100.0 %
Test CRC 74137644
Copy CRC 74137644
Track not present in AccurateRip database
Copy OK

Track 6

Filename H:\My Storage\Music\New Lossless Rips\Pop\Meghan Trainor (My Own 100% FLAC Rips)\(2020) Treat Yourself {Target Exclusive}\06 - Ashes.wav

Peak level 98.8 %
Extraction speed 3.5 X
Track quality 100.0 %
Test CRC D347B58A
Copy CRC D347B58A
Track not present in AccurateRip database
Copy OK

Track 7

Filename H:\My Storage\Music\New Lossless Rips\Pop\Meghan Trainor (My Own 100% FLAC Rips)\(2020) Treat Yourself {Target Exclusive}\07 - Lie to Me.wav

Peak level 99.4 %
Extraction speed 3.6 X
Track quality 100.0 %
Test CRC 290E48EF
Copy CRC 290E48EF
Track not present in AccurateRip database
Copy OK

Track 8

Filename H:\My Storage\Music\New Lossless Rips\Pop\Meghan Trainor (My Own 100% FLAC Rips)\(2020) Treat Yourself {Target Exclusive}\08 - Here to Stay.wav

Peak level 98.8 %
Extraction speed 3.8 X
Track quality 100.0 %
Test CRC 1F189FA6
Copy CRC 1F189FA6
Track not present in AccurateRip database
Copy OK

Track 9

Filename H:\My Storage\Music\New Lossless Rips\Pop\Meghan Trainor (My Own 100% FLAC Rips)\(2020) Treat Yourself {Target Exclusive}\09 - Blink.wav

Peak level 99.9 %
Extraction speed 3.8 X
Track quality 100.0 %
Test CRC BC02FE65
Copy CRC BC02FE65
Track not present in AccurateRip database
Copy OK

Track 10

Filename H:\My Storage\Music\New Lossless Rips\Pop\Meghan Trainor (My Own 100% FLAC Rips)\(2020) Treat Yourself {Target Exclusive}\10 - Genetics.wav

Peak level 98.8 %
Extraction speed 4.0 X
Track quality 100.0 %
Test CRC A73F1949
Copy CRC A73F1949
Track not present in AccurateRip database
Copy OK

Track 11

Filename H:\My Storage\Music\New Lossless Rips\Pop\Meghan Trainor (My Own 100% FLAC Rips)\(2020) Treat Yourself {Target Exclusive}\11 - Evil Twin.wav

Peak level 94.3 %
Extraction speed 4.3 X
Track quality 100.0 %
Test CRC 21FF985A
Copy CRC 21FF985A
Track not present in AccurateRip database
Copy OK

Track 12

Filename H:\My Storage\Music\New Lossless Rips\Pop\Meghan Trainor (My Own 100% FLAC Rips)\(2020) Treat Yourself {Target Exclusive}\12 - After You.wav

Peak level 94.3 %
Extraction speed 4.4 X
Track quality 100.0 %
Test CRC 81462A62
Copy CRC 81462A62
Track not present in AccurateRip database
Copy OK

Track 13

Filename H:\My Storage\Music\New Lossless Rips\Pop\Meghan Trainor (My Own 100% FLAC Rips)\(2020) Treat Yourself {Target Exclusive}\13 - Another Opinion.wav

Peak level 99.8 %
Extraction speed 4.5 X
Track quality 100.0 %
Test CRC 4AF6F470
Copy CRC 4AF6F470
Track not present in AccurateRip database
Copy OK

Track 14

Filename H:\My Storage\Music\New Lossless Rips\Pop\Meghan Trainor (My Own 100% FLAC Rips)\(2020) Treat Yourself {Target Exclusive}\14 - No Excuses.wav

Peak level 99.8 %
Extraction speed 4.5 X
Track quality 100.0 %
Test CRC F9576C7E
Copy CRC F9576C7E
Track not present in AccurateRip database
Copy OK

Track 15

Filename H:\My Storage\Music\New Lossless Rips\Pop\Meghan Trainor (My Own 100% FLAC Rips)\(2020) Treat Yourself {Target Exclusive}\15 - Have You Now.wav

Peak level 99.4 %
Extraction speed 4.0 X
Track quality 99.9 %
Test CRC 869D1DFB
Copy CRC 869D1DFB
Track not present in AccurateRip database
Copy OK

Track 16

Filename H:\My Storage\Music\New Lossless Rips\Pop\Meghan Trainor (My Own 100% FLAC Rips)\(2020) Treat Yourself {Target Exclusive}\16 - All the Ways.wav

Peak level 95.2 %
Extraction speed 4.8 X
Track quality 100.0 %
Test CRC F91B0D98
Copy CRC F91B0D98
Track not present in AccurateRip database
Copy OK

Track 17

Filename H:\My Storage\Music\New Lossless Rips\Pop\Meghan Trainor (My Own 100% FLAC Rips)\(2020) Treat Yourself {Target Exclusive}\17 - Treat Myself.wav

Peak level 96.4 %
Extraction speed 4.9 X
Track quality 100.0 %
Test CRC 0ADBB646
Copy CRC 0ADBB646
Track not present in AccurateRip database
Copy OK

None of the tracks are present in the AccurateRip database

No errors occurred

End of status report

---- CUETools DB Plugin V2.1.6

[CTDB TOCID: cbBGXW__k7OIJMWL4ukXwGfCbKQ-] found
Submit result: cbBGXW__k7OIJMWL4ukXwGfCbKQ- has been confirmed
Track | CTDB Status
1 | (6/6) Accurately ripped
2 | (6/6) Accurately ripped
3 | (6/6) Accurately ripped
4 | (6/6) Accurately ripped
5 | (6/6) Accurately ripped
6 | (6/6) Accurately ripped
7 | (6/6) Accurately ripped
8 | (6/6) Accurately ripped
9 | (6/6) Accurately ripped
10 | (6/6) Accurately ripped
11 | (6/6) Accurately ripped
12 | (6/6) Accurately ripped
13 | (6/6) Accurately ripped
14 | (6/6) Accurately ripped
15 | (6/6) Accurately ripped
16 | (6/6) Accurately ripped
17 | (6/6) Accurately ripped

==== Log checksum BDBDA7672A9BCA0E6215CA97EC6AAF3240B334F2254AA8E338A94FB25D5BC848 ====
Содержание индексной карты (.CUE)
REM GENRE Pop
REM DATE 2020
REM DISCID 050C4811
REM COMMENT "ExactAudioCopy v1.1"
PERFORMER "Meghan Trainor"
TITLE "Treat Myself"
FILE "01 - Wave.wav" WAVE
TRACK 01 AUDIO
TITLE "Wave"
PERFORMER "Meghan Trainor"
ISRC USSM11907076
INDEX 01 00:00:00
FILE "02 - Nice to Meet Ya.wav" WAVE
TRACK 02 AUDIO
TITLE "Nice to Meet Ya"
PERFORMER "Meghan Trainor"
ISRC USSM11913868
INDEX 01 00:00:00
FILE "03 - Funk.wav" WAVE
TRACK 03 AUDIO
TITLE "Funk"
PERFORMER "Meghan Trainor"
ISRC USSM11913869
INDEX 01 00:00:00
FILE "04 - Babygirl.wav" WAVE
TRACK 04 AUDIO
TITLE "Babygirl"
PERFORMER "Meghan Trainor"
ISRC USSM11913870
INDEX 01 00:00:00
FILE "05 - Workin' on It.wav" WAVE
TRACK 05 AUDIO
TITLE "Workin' on It"
PERFORMER "Meghan Trainor"
ISRC USSM11913871
INDEX 01 00:00:00
FILE "06 - Ashes.wav" WAVE
TRACK 06 AUDIO
TITLE "Ashes"
PERFORMER "Meghan Trainor"
ISRC USSM11913879
INDEX 01 00:00:00
FILE "07 - Lie to Me.wav" WAVE
TRACK 07 AUDIO
TITLE "Lie to Me"
PERFORMER "Meghan Trainor"
ISRC USSM11913878
INDEX 01 00:00:00
FILE "08 - Here to Stay.wav" WAVE
TRACK 08 AUDIO
TITLE "Here to Stay"
PERFORMER "Meghan Trainor"
ISRC USSM11913877
INDEX 01 00:00:00
FILE "09 - Blink.wav" WAVE
TRACK 09 AUDIO
TITLE "Blink"
PERFORMER "Meghan Trainor"
ISRC USSM11913876
INDEX 01 00:00:00
FILE "10 - Genetics.wav" WAVE
TRACK 10 AUDIO
TITLE "Genetics"
PERFORMER "Meghan Trainor"
ISRC USSM11913875
INDEX 01 00:00:00
FILE "11 - Evil Twin.wav" WAVE
TRACK 11 AUDIO
TITLE "Evil Twin"
PERFORMER "Meghan Trainor"
ISRC USSM11913874
INDEX 01 00:00:00
FILE "12 - After You.wav" WAVE
TRACK 12 AUDIO
TITLE "After You"
PERFORMER "Meghan Trainor"
ISRC USSM11913873
INDEX 01 00:00:00
FILE "13 - Another Opinion.wav" WAVE
TRACK 13 AUDIO
TITLE "Another Opinion"
PERFORMER "Meghan Trainor"
ISRC USSM11913872
INDEX 01 00:00:00
FILE "14 - No Excuses.wav" WAVE
TRACK 14 AUDIO
TITLE "No Excuses"
PERFORMER "Meghan Trainor"
ISRC USSM11801528
INDEX 01 00:00:00
FILE "15 - Have You Now.wav" WAVE
TRACK 15 AUDIO
TITLE "Have You Now"
PERFORMER "Meghan Trainor"
ISRC USSM11913880
INDEX 01 00:00:00
FILE "16 - All the Ways.wav" WAVE
TRACK 16 AUDIO
TITLE "All the Ways"
PERFORMER "Meghan Trainor"
ISRC USSM11805716
INDEX 01 00:00:00
FILE "17 - Treat Myself.wav" WAVE
TRACK 17 AUDIO
TITLE "Treat Myself"
PERFORMER "Meghan Trainor"
ISRC USSM11805748
INDEX 01 00:00:00

Meghan Trainor - Treat Myselff (Target Exclusive) FLAC-2020.torrent
Трекер: Зарегистрирован

magnet ссылка

 


Скачать .torrent

15 KB

Статус: проверено (by Snowden в 23-Апр-20 17:40)
Зарегистрирован: 23-Апр-20 15:39
Скачан: 7 раз
Размер: 358 MB | 
Поблагодарили:
Скачать (Pop) Meghan Trainor - Treat Myselff (Target Exclusive) - 2020, [FLAC, tracks +.cue, lossless] торрент
 


Похожие раздачи

Текущее время: 02-Дек 12:38

Часовой пояс: GMT + 3



Вы не можете начинать темы
Вы не можете отвечать на сообщения
Вы не можете редактировать свои сообщения
Вы не можете удалять свои сообщения
Вы не можете голосовать в опросах
Вы не можете прикреплять файлы к сообщениям
Вы не можете скачивать файлы