Loading...
Error
 

Скачать торрент (Synthpop / Pop / Electronic) Nina - Sleepwalking [Deluxe Edition] (2018) [FLAC, (tracks), lossless]

 
Автор Сообщение

Слава2312

post 20-Май-20 09:37

pic


pic

Жанр: Synthpop / Pop / Electronic
Год издания данного носителя: 2018
Страна-производитель носителя: UK
Лейбл: Aztec Records
Каталоговый номер: none
Аудио кодек: FLAC
Тип рипа: tracks
Битрейт аудио: lossless
Продолжительность: 01:35:09
Источник (релизер): DMMANIAC
Для ознакомления:
pic pic pic pic
Треклист
[5:08] 01. Nina - Beyond Memory (Extended Version)
[4:11] 02. Nina - Born To Live
[4:52] 03. Nina - Sleepwalking
[4:36] 04. Nina - It Kills Me
[4:27] 05. Nina - Purple Sun
[3:33] 06. Nina - Empire Of Love
[3:19] 07. Nina - Diamonds In The Rough
[4:28] 08. Nina - One Of Us
[4:38] 09. Nina - Counting Stars
[4:27] 10. Nina - Your Truth
[3:56] 11. Nina - 80's Girl
[5:08] 12. Nina - Beyond Memory (Extended Version) (Instrumental)
[4:11] 13. Nina - Born To Live (Instrumental)
[4:52] 14. Nina - Sleepwalking (Instrumental)
[4:36] 15. Nina - It Kills Me (Instrumental)
[4:27] 16. Nina - Purple Sun (Instrumental)
[3:33] 17. Nina - Empire Of Love (Instrumental)
[3:19] 18. Nina - Diamonds In The Rough (Instrumental)
[4:26] 19. Nina - One Uf Us (Instrumental)
[4:38] 20. Nina - Counting Stars (Instrumental)
[4:28] 21. Nina - Your Truth (Instrumental)
[3:56] 22. Nina - 80s Girl (Instrumental)

AUDIOCHECKER

Код:



AUDIOCHECKER v2.0 beta (build 457) - by Dester
~~~~~~~~~~~~~~~~~~~~~~~~~~~~~~~~~~
-=== НЕ РЕДАКТИРУЙТЕ ЭТОТ ФАЙЛ! ===-

Путь: ...\Nina - Sleepwalking (Deluxe Edition) [2018] Flac

01 -=- 01 - Beyond Memory (Extended Version).flac -=- CDDA (100%)
02 -=- 02 - Born To Live.flac -=- CDDA (100%)
03 -=- 03 - Sleepwalking.flac -=- CDDA (100%)
04 -=- 04 - It Kills Me.flac -=- CDDA (100%)
05 -=- 05 - Purple Sun.flac -=- CDDA (100%)
06 -=- 06 - Empire Of Love.flac -=- CDDA (100%)
07 -=- 07 - Diamonds In The Rough.flac -=- CDDA (100%)
08 -=- 08 - One Of Us.flac -=- CDDA (100%)
09 -=- 09 - Counting Stars.flac -=- CDDA (100%)
10 -=- 10 - Your Truth.flac -=- CDDA (100%)
11 -=- 11 - 80's Girl.flac -=- CDDA (100%)
12 -=- 12 - Beyond Memory (Extended Version) (Instrumental).flac -=- CDDA (100%)
13 -=- 13 - Born To Live (Instrumental).flac -=- CDDA (100%)
14 -=- 14 - Sleepwalking (Instrumental).flac -=- CDDA (100%)
15 -=- 15 - It Kills Me (Instrumental).flac -=- CDDA (100%)
16 -=- 16 - Purple Sun (Instrumental).flac -=- CDDA (100%)
17 -=- 17 - Empire Of Love (Instrumental).flac -=- CDDA (100%)
18 -=- 18 - Diamonds In The Rough (Instrumental).flac -=- CDDA (100%)
19 -=- 19 - One Uf Us (Instrumental).flac -=- MPEG (95%)
20 -=- 20 - Counting Stars (Instrumental).flac -=- CDDA (100%)
21 -=- 21 - Your Truth (Instrumental).flac -=- CDDA (99%)
22 -=- 22 - 80s Girl (Instrumental).flac -=- CDDA (100%)

Сводка 95,64% CDDA

38272356

Замер динамического диапазона (DR)

Код:



foobar2000 1.4.1 / Замер динамического диапазона (DR) 1.1.1
Дата отчёта:    2020-05-20 10:32:02

--------------------------------------------------------------------------------
Анализ:   Nina / Sleepwalking (Deluxe Edition)
--------------------------------------------------------------------------------

DR         Пики         RMS           Продолжительность трека
--------------------------------------------------------------------------------
DR10      -1.01 дБ   -12.71 дБ      5:08 01-Beyond Memory (Extended Version)
DR11      -0.81 дБ   -12.54 дБ      4:11 02-Born To Live
DR7       -0.77 дБ   -10.79 дБ      4:52 03-Sleepwalking
DR9       -0.55 дБ   -12.71 дБ      4:36 04-It Kills Me
DR9       -0.52 дБ   -12.53 дБ      4:27 05-Purple Sun
DR7       -0.55 дБ   -10.80 дБ      3:33 06-Empire Of Love
DR9       -0.64 дБ   -12.16 дБ      3:19 07-Diamonds In The Rough
DR6       -0.80 дБ    -8.61 дБ      4:28 08-One Of Us
DR10      -0.63 дБ   -13.16 дБ      4:38 09-Counting Stars
DR8       -0.56 дБ   -11.53 дБ      4:27 10-Your Truth
DR10      -0.51 дБ   -11.57 дБ      3:56 11-80's Girl
DR10      -1.01 дБ   -13.04 дБ      5:08 12-Beyond Memory (Extended Version) (Instrumental)
DR11      -0.81 дБ   -13.01 дБ      4:11 13-Born To Live (Instrumental)
DR7       -0.77 дБ   -11.17 дБ      4:52 14-Sleepwalking (Instrumental)
DR10      -0.55 дБ   -13.99 дБ      4:36 15-It Kills Me (Instrumental)
DR10      -0.52 дБ   -13.41 дБ      4:27 16-Purple Sun (Instrumental)
DR8       -0.55 дБ   -11.57 дБ      3:33 17-Empire Of Love (Instrumental)
DR10      -0.64 дБ   -13.26 дБ      3:19 18-Diamonds In The Rough (Instrumental)
DR5       -0.10 дБ    -6.25 дБ      4:26 19-One Uf Us (Instrumental)
DR7       -0.10 дБ    -9.46 дБ      4:38 20-Counting Stars (Instrumental)
DR9       -0.56 дБ   -11.77 дБ      4:28 21-Your Truth (Instrumental)
DR10      -0.51 дБ   -11.85 дБ      3:56 22-80s Girl (Instrumental)
--------------------------------------------------------------------------------

Количество треков:  22
Реальные значения DR:  DR9

Частота:      44100 Гц
Каналов:      2
Разрядность:     16
Битрейт:      838 кбит/с
Кодек:      FLAC
================================================================================


pic
Nina - Sleepwalking (Deluxe Edition) (2018) Flac.torrent
Трекер: Зарегистрирован

magnet ссылка

 


Скачать .torrent

13 KB

Статус: проверено (by E IL o T IR i X в 20-Май-20 13:30)
Зарегистрирован: 20-Май-20 09:37
Скачан: 21 раз
Размер: 560 MB | 
Поблагодарили:
Скачать (Synthpop / Pop / Electronic) Nina - Sleepwalking [Deluxe Edition] (2018) [FLAC, (tracks), lossless] торрент
Nina's second album 'Synthian' (feat. LAU) will be released in June 2020 via Aztec Records.
 


Похожие раздачи

E IL o T IR i X

post 20-Май-20 12:34 (спустя 2 часа 57 минут)

треклист в спойлер

Слава2312

post 20-Май-20 13:29 (спустя 55 минут)

Сделано smile

Текущее время: 03-Июн 08:46

Часовой пояс: GMT + 3



Вы не можете начинать темы
Вы не можете отвечать на сообщения
Вы не можете редактировать свои сообщения
Вы не можете удалять свои сообщения
Вы не можете голосовать в опросах
Вы не можете прикреплять файлы к сообщениям
Вы не можете скачивать файлы