Loading...
Error
 

Скачать торрент (Jrock) SCANDAL - Kiss From The Darkness - 2020, [FLAC, tracks, lossless]

 
Автор Сообщение

Myster_Ya

post 29-Июл-20 23:58

pic
SCANDAL - Kiss From The Darkness

Год издания: 2020.02.12
Жанр: Jrock
Продолжительность: 00:46:02
Лейбл издания: Victor Entertainment
Страна-выпуска диска: Japan
Формат записи/Источник записи: [TR24][OF]
Разрядность: 24/48
Формат: FLAC
Битрейт аудио: Lossless
Тип рипа: tracks
Источник: mora.jp
Наличие сканов в содержимом раздачи: нет
Треклист:
01. Tonight (03:44)
02. マスターピース (04:16)
03. Fuzzy (04:45)
04. 最終兵器、君 (03:55)
05. ランドリーランドリー (04:17)
06. NEON TOWN ESCAPE (04:24)
07. セラミックブルー (03:56)
08. 記念日 (04:52)
09. まばたき (03:49)
10. A.M.D.K.J. (03:40)
11. 月 (04:23)
Лог проверки качества
foobar2000 1.5.4 / Замер динамического диапазона (DR) 1.1.1
Дата отчёта: 2020-07-29 23:27:12

--------------------------------------------------------------------------------
Анализ: SCANDAL / Kiss from the darkness
--------------------------------------------------------------------------------

DR Пики RMS Продолжительность трека
--------------------------------------------------------------------------------
DR4 -0.01 дБ -4.93 дБ 4:16 02-マスターピース
DR4 -0.01 дБ -4.74 дБ 4:45 03-Fuzzy
DR5 -0.01 дБ -5.72 дБ 3:55 04-最終兵器、君
DR6 -0.01 дБ -8.13 дБ 4:17 05-ランドリーランドリー
DR4 -0.01 дБ -5.31 дБ 4:24 06-NEON TOWN ESCAPE
DR5 -0.05 дБ -6.45 дБ 3:56 07-セラミックブルー
DR6 -0.01 дБ -6.74 дБ 4:52 08-記念日
DR5 -0.01 дБ -6.44 дБ 3:49 09-まばたき
DR4 -0.01 дБ -5.02 дБ 3:40 10-A.M.D.K.J.
DR5 -0.01 дБ -8.51 дБ 4:23 11-月
DR5 -0.01 дБ -7.11 дБ 3:44 01-Tonight
--------------------------------------------------------------------------------

Количество треков: 11
Реальные значения DR: DR5

Частота: 48000 Гц
Каналов: 2
Разрядность: 24
Битрейт: 2308 кбит/с
Кодек: FLAC
================================================================================
SCANDAL - Kiss From The Darkness



SCANDAL - Kiss from the darkness (FLAC)(Hi-RES).torrent
Трекер: Зарегистрирован

magnet ссылка

 


Скачать .torrent

16 KB

Статус: проверено (by ilyash_rekviem в 30-Июл-20 02:30)
Зарегистрирован: 29-Июл-20 23:58
Скачан: 2 раза
Размер: 767 MB | 
Поблагодарили:
Скачать (Jrock) SCANDAL - Kiss From The Darkness - 2020, [FLAC, tracks, lossless] торрент
 


Похожие раздачи

Текущее время: 17-Янв 21:48

Часовой пояс: GMT + 3



Вы не можете начинать темы
Вы не можете отвечать на сообщения
Вы не можете редактировать свои сообщения
Вы не можете удалять свои сообщения
Вы не можете голосовать в опросах
Вы не можете прикреплять файлы к сообщениям
Вы не можете скачивать файлы