Loading...
Error
 
Мини-чат
 

Скачать торрент Metallica и Симфонический оркестр Сан-Франциско: S&M2 / Metallica & San Francisco Symphony - S&M2 [2019, Heavy-Metal, Thrash-Metal, BDRip 1080p]

 
Автор Сообщение

HardwareMining

post 31-Авг-20 12:51

Metallica и Симфонический оркестр Сан-Франциско: S&M2; / Metallica & San Francisco Symphony - S&M2

pic

Год выпуска: 2019
Страна: США
Жанр: Heavy-Metal, Thrash-Metal
Продолжительность: 02:28:48
Описание:
Концерты METALLICA с Симфоническим оркестром Сан-Франциско, состоявшиеся 6 и 8 сентября 2019 года, стали историческими во многих отношениях. Они стали первыми выступлениями в только что открытом зале “Chase Center”, первыми совместными выступлениями группы и оркестра с 1999 года, и на них впервые можно было услышать симфонические версии песен, увидевших свет после выхода первого альбома "S&M".

Аншлаговые концерты собрали, в общей сложности, 40 тыс. зрителей, которые приехали из почти 70 стран. Они также получили восторженные отклики в таких престижных изданиях, как Rolling Stone, Variety и Consequence Of Sound. А 28 августа эти впечатления можно будет пережить еще раз – свет увидит концертный релиз под названием "S&M²". Он будет доступен во всевозможных форматах – четверной винил, двойнойCD, DVD, Blu-ray, цифровая версия, а также лимитированный подарочный бокс, в который войдут четыре виниловых пластинки, два CD, Blu-ray, нотная партитура, гитарные медиаторы, постер и многое другое. На сайте Metallica.com будет эксклюзивно продаваться супер-подарочный бокс-сет, в который, помимо всего содержимого обычного бокса, вложены настоящие партитуры, по которым оркестранты играли на концертах, подписанные от руки всеми четырьмя участниками группы. Ответственность за релиз взял на себя собственный лейбл музыкантов Blackened Recordings.
Мировая премьера: 9 октября 2019 (США)
pic
Рейтинг IMDB: 8.8 (1 026)
Качество: BDRip 1080p (Rip.by.HardwareMining)
Формат: MKV
Видео кодек: AVC
Аудио кодек: AC3
Видео: AVC, 1920x1080 (16:9), 6200 kbps, 23,976 fps, 0,125 bpp
Аудио: английский / AC3 / 5.1 / 48 kHz / 448 kbps /

ОтчетМедиаИнфо
General
Unique ID : 228582756388055525303694041901570259841 (0xABF77001F48344E9BEE0F6F98ED0FB81)
Complete name : G:\Резервные закладки\Metallica & San Francisco Symphony - S&M2.Rip.by.HardwareMining.mkv
Format : Matroska
Format version : Version 4 / Version 2
File size : 6.91 GiB
Duration : 2 h 28 min
Overall bit rate : 6 649 kb/s
Movie name : Rip.by.HardwareMining
Encoded date : UTC 2020-08-31 06:22:01
Writing application : mkvmerge v6.8.0 ('Theme for Great Cities') 64bit built on Mar 2 2014 21:34:26
Writing library : libebml v1.3.0 + libmatroska v1.4.1
Cover : Yes
Attachments : cover.jpg

Video
ID : 2
Format : AVC
Format/Info : Advanced Video Codec
Format profile : [email protected]
Format settings, CABAC : Yes
Format settings, ReFrames : 4 frames
Codec ID : V_MPEG4/ISO/AVC
Duration : 2 h 28 min
Bit rate : 6 200 kb/s
Width : 1 920 pixels
Height : 1 080 pixels
Display aspect ratio : 16:9
Frame rate mode : Constant
Frame rate : 23.976 (24000/1001) FPS
Color space : YUV
Chroma subsampling : 4:2:0
Bit depth : 8 bits
Scan type : Progressive
Bits/(Pixel*Frame) : 0.125
Stream size : 6.31 GiB (91%)
Writing library : x264 core 148 r2638 7599210
Encoding settings : cabac=1 / ref=4 / deblock=1:-2:-1 / analyse=0x3:0x113 / me=umh / subme=11 / psy=1 / psy_rd=0.00:0.15 / mixed_ref=1 / me_range=32 / chroma_me=1 / trellis=2 / 8x8dct=1 / cqm=0 / deadzone=21,11 / fast_pskip=0 / chroma_qp_offset=-3 / threads=6 / lookahead_threads=1 / sliced_threads=0 / nr=0 / decimate=0 / interlaced=0 / bluray_compat=0 / constrained_intra=0 / bframes=10 / b_pyramid=2 / b_adapt=2 / b_bias=0 / direct=1 / weightb=1 / open_gop=0 / weightp=2 / keyint=240 / keyint_min=23 / scenecut=40 / intra_refresh=0 / rc_lookahead=40 / rc=2pass / mbtree=0 / bitrate=6200 / ratetol=1.0 / qcomp=0.65 / qpmin=0 / qpmax=69 / qpstep=4 / cplxblur=20.0 / qblur=0.5 / vbv_maxrate=50000 / vbv_bufsize=65500 / nal_hrd=none / filler=0 / ip_ratio=1.40 / pb_ratio=1.30 / aq=1:2.00
Language : English
Default : Yes
Forced : No

Audio
ID : 1
Format : AC-3
Format/Info : Audio Coding 3
Mode extension : CM (complete main)
Format settings, Endianness : Big
Codec ID : A_AC3
Duration : 2 h 28 min
Bit rate mode : Constant
Bit rate : 448 kb/s
Channel(s) : 6 channels
Channel positions : Front: L C R, Side: L R, LFE
Sampling rate : 48.0 kHz
Frame rate : 31.250 FPS (1536 spf)
Compression mode : Lossy
Stream size : 477 MiB (7%)
Language : English
Default : Yes
Forced : No
Треклист
01. Intro (features "Wherever I May Roam" and "All Within My Hands")
02. The Ecstasy of Gold (Live)
03. The Call of Ktulu (Live)
04. For Whom the Bell Tolls (Live)
05. The Day That Never Comes (Live)
06. The Memory Remains (Live)
07. Confusion (Live)
08. Moth Into Flame (Live)
09. The Outlaw Torn (Live)
10. No Leaf Clover (Live)
11. Halo on Fire (Live)
12. Intro to Scythian Suite (Live)
13. Scythian Suite, Opus 20 II: The Enemy God And The Dance Of The Dark Spirits (Live)
14. Intro to The Iron Foundry (Live)
15. The Iron Foundry, Opus 19 (Live)
16. The Unforgiven III (Live)
17. All Within My Hands (Live)
18. (Anesthesia) - Pulling Teeth (Live)
19. Wherever I May Roam (Live)
20. One (Live)
21. Master of Puppets (Live)
22. Nothing Else Matters (Live)
23. Enter Sandman (Live)
Скриншоты
Metallica & San Francisco Symphony - S&M2.Rip.by.HardwareMining.mkv.torrent
 ЗОЛОТАЯ РАЗДАЧА! СКАЧАННОЕ НЕ ЗАСЧИТЫВАЕТСЯ! 
Вечный
Трекер: Зарегистрирован

magnet ссылка

 


Скачать .torrent

17 KB

Статус: проверено (by Арт33 в 31-Авг-20 16:27)
Зарегистрирован: 31-Авг-20 12:51
Скачан: 91 раз
Размер: 6.91 GB | 
Поблагодарили:
Скачать Metallica и Симфонический оркестр Сан-Франциско: S&M2 / Metallica & San Francisco Symphony - S&M2 [2019, Heavy-Metal, Thrash-Metal, BDRip 1080p] торрент
 


Похожие раздачи

manchester1090

post 31-Авг-20 15:25 (спустя 2 часа 33 минуты)

Долгожданный концертник Метлы, "No Leaf Clover" как в первый раз рвет!

demon1076

post 31-Авг-20 17:59 (спустя 2 часа 34 минуты)

Я помню, как по радио слушал первый S&M в 99-м, будучи подростком 13 лет. Теперь у самого семья, дети, а Metallica все также крута! Спасибо за раздачу!!!

Текущее время: 01-Окт 09:52

Часовой пояс: GMT + 3



Вы не можете начинать темы
Вы не можете отвечать на сообщения
Вы не можете редактировать свои сообщения
Вы не можете удалять свои сообщения
Вы не можете голосовать в опросах
Вы не можете прикреплять файлы к сообщениям
Вы не можете скачивать файлы