Loading...
Error
 
Мини-чат
 

Скачать торрент (Pop) Julia - Passe comme tu sais - 2020, [WEB] [FLAC, tracks, lossless]



 
Автор Сообщение

Myster_Ya

post 09-Сен-20 00:07

pic
Julia - Passe comme tu sais

Год издания: 2020
Жанр: Pop
Носитель: WEB
Продолжительность: 00:45:17
Лейбл издания: Sony Music
Формат записи/Источник записи: [TR24][OF]
Разрядность: 24/48
Формат: FLAC
Битрейт аудио: Lossless
Тип рипа: tracks
Источник: qobuz.com
Наличие сканов в содержимом раздачи: нет
Треклист:
01. #MESUISTROMPÉE (03:48)
02. My Lovely Day (04:28)
03. Baptême en l'air (04:11)
04. Et toi mon amour (03:34)
05. La vie coule (03:50)
06. SEXTO (04:09)
07. 9 vies (04:55)
08. Passe... comme tu sais (03:30)
09. Utopie (04:02)
10. Même pas mal (04:11)
11. Mon héritage (04:40)
Лог проверки качества
foobar2000 1.5.4 / Замер динамического диапазона (DR) 1.1.1
Дата отчёта: 2020-06-24 18:45:10

--------------------------------------------------------------------------------
Анализ: Julia / Passe... comme tu sais
--------------------------------------------------------------------------------

DR Пики RMS Продолжительность трека
--------------------------------------------------------------------------------
DR5 -0.01 дБ -6.01 дБ 3:48 01-#MESUISTROMPÉE
DR5 -0.01 дБ -6.93 дБ 4:28 02-My Lovely Day
DR4 -0.01 дБ -5.61 дБ 4:11 03-Baptême en l'air
DR5 -0.01 дБ -6.17 дБ 3:34 04-Et toi mon amour
DR5 -0.01 дБ -8.09 дБ 3:50 05-La vie coule
DR4 -0.01 дБ -5.45 дБ 4:09 06-SEXTO
DR5 -0.01 дБ -6.93 дБ 4:55 07-9 vies
DR5 -0.01 дБ -7.57 дБ 3:30 08-Passe... comme tu sais
DR5 -0.01 дБ -7.25 дБ 4:02 09-Utopie
DR4 -0.01 дБ -6.63 дБ 4:11 10-Même pas mal
DR4 -0.01 дБ -5.84 дБ 4:40 11-Mon héritage
--------------------------------------------------------------------------------

Количество треков: 11
Реальные значения DR: DR4

Частота: 48000 Гц
Каналов: 2
Разрядность: 24
Битрейт: 1753 кбит/с
Кодек: FLAC
================================================================================
Julia - Passe comme tu sais

Julia - Passe... comme tu sais (2020) (24 48).torrent
Трекер: Зарегистрирован

magnet ссылка

 


Скачать .torrent

12 KB

Статус: проверено (by ilyash_rekviem в 09-Сен-20 00:12)
Зарегистрирован: 09-Сен-20 00:07
Скачан: 0 раз
Размер: 581 MB | 
Поблагодарили:
Скачать (Pop) Julia - Passe comme tu sais - 2020, [WEB] [FLAC, tracks, lossless] торрент
 


Похожие раздачи

Текущее время: 26-Ноя 04:12

Часовой пояс: GMT + 3



Вы не можете начинать темы
Вы не можете отвечать на сообщения
Вы не можете редактировать свои сообщения
Вы не можете удалять свои сообщения
Вы не можете голосовать в опросах
Вы не можете прикреплять файлы к сообщениям
Вы не можете скачивать файлы