Loading...
Error
 
Мини-чат
 

Скачать торрент (Pop) Meghan Trainor - A Very Trainor Christmas - 2020, [FLAC, tracks +.cue, lossless]



 
Автор Сообщение

Myster_Ya

post 23-Окт-20 00:52

pic
Meghan Trainor - A Very Trainor Christmas

Год издания: 2020 (pre-release, out October 30th )
Жанр: Pop
Продолжительность: 00:49:15
Формат: FLAC
Битрейт аудио: Lossless
Тип рипа: tracks+.cue
Источник: скачано из сети
Наличие сканов в содержимом раздачи: нет
Треклист
01. My Kind Of Present [2:41]
02. It's Beginning To Look A Lot Like Christmas [2:08]
03. I Believe In Santa [2:38]
04. Last Christmas [4:03]
05. Holidays (Feat. Earth, Wind & Fire) [2:45]
06. Christmas Party [2:55]
07. Winter Wonderland [2:18]
08. White Christmas (Feat. Seth MacFarlane) [3:02]
09. Christmas Got Me Blue [3:33]
10. Sleigh Ride [3:48]
11. My Only Wish [4:02]
12. The Christmas Song [3:35]
13. Rudolph The Red-Nosed Reindeer (Feat. Jayden, Jenna & Marcus Toney) [2:30]
14. Naughty List [2:37]
15. Have Yourself A Merry Little Christmas (Feat. Gary Trainor) [3:48]
16. Silent Night [2:45]
Лог проверки качества
-----------------------

DON'T MODIFY THIS FILE

-----------------------

PERFORMER: auCDtect Task Manager, ver. 1.6.0 RC1 build 1.6.0.1
Copyright (c) 2008-2010 y-soft. All rights reserved

ANALYZER: auCDtect: CD records authenticity detector, version 0.8.2
Copyright (c) 2004 Oleg Berngardt. All rights reserved.
Copyright (c) 2004 Alexander Djourik. All rights reserved.

FILE: 16 - Meghan Trainor - Silent Night.flac
Size: 17614589 Hash: D993BEE3B5B96EFFD58B6CB15756F39E Accuracy: -m0
Conclusion: MPEG 90%
Signature: E56356998D35CECD72DBD8923B2D1F4D3AF8DED5
FILE: 15 - Meghan Trainor - Have Yourself A Merry Little Christmas (Feat. Gary Trainor).flac
Size: 23295293 Hash: DF7375FAFED4051EF7682E5E5B9FF776 Accuracy: -m0
Conclusion: CDDA 100%
Signature: FB3B8206F5E2399889610242973750FE3C4E6619
FILE: 14 - Meghan Trainor - Naughty List.flac
Size: 19469157 Hash: 2089DB2DF8B5F222A6840AA7EC407158 Accuracy: -m0
Conclusion: CDDA 100%
Signature: 1F45F1F74C48E435F231E7D062FD203472A0F86A
FILE: 13 - Meghan Trainor - Rudolph The Red-Nosed Reindeer (Feat. Jayden, Jenna & Marcus Toney).flac
Size: 19660995 Hash: 69E96659FC6C4D94A30BD48BB3E79AFD Accuracy: -m0
Conclusion: CDDA 100%
Signature: 9D7A0050001FEBE9372D7D4CFFE95301EB2DF4CA
FILE: 12 - Meghan Trainor - The Christmas Song.flac
Size: 22417178 Hash: E2FD3A41F541DB24E1633AC54B8116FD Accuracy: -m0
Conclusion: CDDA 86%
Signature: 50116775973C1B4EB463B5666D07D5CFF2F5B7D1
FILE: 11 - Meghan Trainor - My Only Wish.flac
Size: 30017247 Hash: 25F01587EB314097887AD8955FA06D8E Accuracy: -m0
Conclusion: CDDA 99%
Signature: D6F6ABEE12D789566E4AF736A00B2646F8FCB3D7
FILE: 10 - Meghan Trainor - Sleigh Ride.flac
Size: 28497139 Hash: C20E89511D72EB2EA0F1E47428DF46ED Accuracy: -m0
Conclusion: CDDA 100%
Signature: 1F7B9004F8ED2FD0834D71A457FAFEA9AE3458F7
FILE: 09 - Meghan Trainor - Christmas Got Me Blue.flac
Size: 26365898 Hash: 8629BE056604B53A3946736F6E7D62F2 Accuracy: -m0
Conclusion: MPEG 89%
Signature: E328EFE55EF24C0214345BF9799698181E6328A5
FILE: 08 - Meghan Trainor - White Christmas (Feat. Seth MacFarlane).flac
Size: 21620423 Hash: D3FC801F19625B01D0A5268955BB785C Accuracy: -m0
Conclusion: CDDA 99%
Signature: FE9865B0BE28F613ADCF197BE3A830E4CE6B071C
FILE: 07 - Meghan Trainor - Winter Wonderland.flac
Size: 15693611 Hash: DCF0F538F7D0718C8A06531F346D53B8 Accuracy: -m0
Conclusion: CDDA 85%
Signature: 1E12E6A85D847D7CDF768942E91D5B0A679CEA8D
FILE: 06 - Meghan Trainor - Christmas Party.flac
Size: 21715450 Hash: 340ACCBAA5D0B8901E935E9761C1BA76 Accuracy: -m0
Conclusion: CDDA 100%
Signature: 145C8B5360606B17D3B401E40C353100C0E3E0D1
FILE: 05 - Meghan Trainor - Holidays (Feat. Earth, Wind & Fire).flac
Size: 22923195 Hash: 8F913C8349741687AFAC6A66E91F77FD Accuracy: -m0
Conclusion: CDDA 100%
Signature: B15F048DF80DC13B3354734A68287FD98DBCA107
FILE: 04 - Meghan Trainor - Last Christmas.flac
Size: 32156353 Hash: 3FB39B6760363DC2D6A3F41B98A63083 Accuracy: -m0
Conclusion: CDDA 100%
Signature: AE18AAFAD7EB6CD2374D70E2E76958BC094C9C96
FILE: 03 - Meghan Trainor - I Believe In Santa.flac
Size: 20032468 Hash: 10810736D700F867A2B988E2E42F6660 Accuracy: -m0
Conclusion: CDDA 100%
Signature: 77C25A4AACAF0198DB5B93072B90B31D1C93E42A
FILE: 02 - Meghan Trainor - It's Beginning To Look A Lot Like Christmas.flac
Size: 16320882 Hash: AE7A2E2AC0ADB338B7309628AF6CE0E6 Accuracy: -m0
Conclusion: CDDA 100%
Signature: 92BE9BEE7E387B1263CE44E94F0CC2FE2EAE7DD5
FILE: 01 - Meghan Trainor - My Kind of Present.flac
Size: 20403848 Hash: E91D6E6ADDAA4439C33B4BF23AD246D5 Accuracy: -m0
Conclusion: CDDA 42%
Signature: 0823EB281EBD13969684DEA9E5FBABB5B0603127
DR
foobar2000 1.5.4 / Замер динамического диапазона (DR) 1.1.1
Дата отчёта: 2020-10-23 00:32:23

--------------------------------------------------------------------------------
Анализ: Meghan Trainor / A Very Trainor Christmas
--------------------------------------------------------------------------------

DR Пики RMS Продолжительность трека
--------------------------------------------------------------------------------
DR5 -0.19 дБ -7.68 дБ 2:41 01-My Kind of Present
DR5 -0.19 дБ -6.60 дБ 2:08 02-It's Beginning To Look A Lot Like Christmas
DR6 -0.20 дБ -8.50 дБ 2:38 03-I Believe In Santa
DR4 -0.20 дБ -5.65 дБ 4:04 04-Last Christmas
DR6 -0.20 дБ -6.96 дБ 2:45 05-Holidays (Feat. Earth, Wind & Fire)
DR6 -0.19 дБ -7.71 дБ 2:56 06-Christmas Party
DR8 -1.20 дБ -10.56 дБ 2:18 07-Winter Wonderland
DR7 -0.20 дБ -8.86 дБ 3:02 08-White Christmas (Feat. Seth MacFarlane)
DR5 -0.20 дБ -7.04 дБ 3:33 09-Christmas Got Me Blue
DR5 -0.19 дБ -6.96 дБ 3:49 10-Sleigh Ride
DR5 -0.20 дБ -7.60 дБ 4:02 11-My Only Wish
DR7 -0.91 дБ -10.09 дБ 3:36 12-The Christmas Song
DR6 -0.20 дБ -7.28 дБ 2:31 13-Rudolph The Red-Nosed Reindeer (Feat. Jayden, Jenna & Marcus Toney)
DR5 -0.19 дБ -7.09 дБ 2:37 14-Naughty List
DR8 -0.21 дБ -10.52 дБ 3:48 15-Have Yourself A Merry Little Christmas (Feat. Gary Trainor)
DR5 -0.20 дБ -8.05 дБ 2:46 16-Silent Night
--------------------------------------------------------------------------------

Количество треков: 16
Реальные значения DR: DR6

Частота: 44100 Гц
Каналов: 2
Разрядность: 16
Битрейт: 831 кбит/с
Кодек: FLAC
================================================================================
Meghan Trainor - Last Christmas

Meghan Trainor - A Very Trainor Christmas (2020) (FLAC).torrent
Трекер: Зарегистрирован

magnet ссылка

 


Скачать .torrent

15 KB

Статус: проверено (by ilyash_rekviem в 23-Окт-20 01:51)
Зарегистрирован: 23-Окт-20 00:52
Скачан: 5 раз
Размер: 342 MB | 
Поблагодарили:
Скачать (Pop) Meghan Trainor - A Very Trainor Christmas - 2020, [FLAC, tracks +.cue, lossless] торрент
 


Похожие раздачи

Текущее время: 26-Ноя 04:45

Часовой пояс: GMT + 3



Вы не можете начинать темы
Вы не можете отвечать на сообщения
Вы не можете редактировать свои сообщения
Вы не можете удалять свои сообщения
Вы не можете голосовать в опросах
Вы не можете прикреплять файлы к сообщениям
Вы не можете скачивать файлы