Loading...
Error
 
Мини-чат
 

Скачать торрент (Score) VA - Cyberpunk 2077 - Original Score EP - 2020, [STREAM] [FLAC, tracks, lossless]



 
Автор Сообщение

Myster_Ya

post 22-Ноя-20 01:15

pic
VA - Cyberpunk 2077 - Original Score EP

Жанр: Score
Носитель: STREAM
Год издания: 2020
Издатель (лейбл): CD PROJEKT RED
Аудиокодек: FLAC (*.flac)
Тип рипа: tracks
Продолжительность: 00:22:05
Источник: deezer
Наличие сканов в содержимом раздачи: нет
Треклист:
01. Marcin Przybyłowicz - Corposeduction [4:26]
02. P.T. Adamczyk - Badlanders [2:04]
03. Paul Leonard-Morgan - Battleground Arasaka [4:49]
04. Marcin Przybyłowicz - NCPD Prowl [4:56]
05. Paul Leonard-Morgan - Core Mikoshi [2:37]
06. P.T. Adamczyk - Chrome Shamans [3:13]
DR

Код:

foobar2000 1.5.5 / Замер динамического диапазона (DR) 1.1.1
Дата отчёта:  2020-11-21 14:25:07

--------------------------------------------------------------------------------
Анализ:   Marcin Przybyłowicz / Cyberpunk 2077 - Original Score EP (1-2)
          P.T. Adamczyk / Cyberpunk 2077 - Original Score EP (3-4)
          Paul Leonard-Morgan / Cyberpunk 2077 - Original Score EP (5-6)
--------------------------------------------------------------------------------

DR         Пики         RMS           Продолжительность трека
--------------------------------------------------------------------------------
DR5       -0.11 дБ    -8.68 дБ      4:26 01-Corposeduction
DR6       -0.02 дБ    -9.11 дБ      4:56 04-NCPD Prowl
DR6       -0.15 дБ    -6.89 дБ      2:04 02-Badlanders
DR8        0.00 дБ    -9.79 дБ      3:13 06-Chrome Shamans
DR5       -0.06 дБ    -7.31 дБ      4:49 03-Battleground Arasaka
DR10      -0.23 дБ   -12.89 дБ      2:37 05-Core Mikoshi
--------------------------------------------------------------------------------

Количество треков: 6
Реальные значения DR: DR7

Частота:   44100 Гц
Каналов:   2
Разрядность:   16
Битрейт:   546 кбит/с
Кодек:   FLAC
================================================================================
Лог проверки качества

Код:



fooCDtect - foobar2000 + auCDtect, baralgin.

auCDtect: CD records authenticity detector, version 0.8.2
Copyright (c) 2004 Oleg Berngardt. All rights reserved.
Copyright (c) 2004 Alexander Djourik. All rights reserved.

     mode: 40

===========================================
    Track: 02. P.T. Adamczyk - Badlanders
  Quality: CDDA 100%
===========================================
    Track: 01. Marcin Przybyłowicz - Corposeduction
  Quality: CDDA 100%
===========================================
    Track: 03. Paul Leonard-Morgan - Battleground Arasaka
  Quality: CDDA  99%
===========================================
    Track: 04. Marcin Przybyłowicz - NCPD Prowl
  Quality: CDDA 100%
===========================================
    Track: 05. Paul Leonard-Morgan - Core Mikoshi
  Quality: MPEG 100%
===========================================
    Track: 06. P.T. Adamczyk - Chrome Shamans
  Quality: CDDA 100%
===========================================
Track: 05. Paul Leonard-Morgan - Core Mikoshi Quality: MPEG 100%
pic

VA - 2020 - Cyberpunk 2077 - Original Score EP (Album).torrent
Трекер: Зарегистрирован

magnet ссылка

 


Скачать .torrent

12 KB

Статус: проверено (by E IL o T IR i X в 22-Ноя-20 01:26)
Зарегистрирован: 22-Ноя-20 01:15
Скачан: 113 раз
Размер: 141 MB | 
Поблагодарили:
Скачать (Score) VA - Cyberpunk 2077 - Original Score EP - 2020, [STREAM] [FLAC, tracks, lossless] торрент
 


Похожие раздачи

Текущее время: 29-Ноя 15:44

Часовой пояс: GMT + 3



Вы не можете начинать темы
Вы не можете отвечать на сообщения
Вы не можете редактировать свои сообщения
Вы не можете удалять свои сообщения
Вы не можете голосовать в опросах
Вы не можете прикреплять файлы к сообщениям
Вы не можете скачивать файлы