Loading...
Error
 

Скачать торрент (Ambient, PsyChill) Chronos - MARS (5 - years Anniversary) - 2017, [TR24] [OF] [FLAC, tracks, lossless]

 
Автор Сообщение

Myster_Ya

post 08-Апр-21 05:28

pic
Chronos - MARS (5 - years Anniversary)

Формат записи/Источник записи: [TR24][OF]
Наличие водяных знаков: Нет
Год издания/переиздания диска: 2017
Жанр: Ambient, PsyChill
Издатель (лейбл): Altar Records - ARCDA77
Продолжительность: 01:07:19
Контейнер: FLAC (*.flac)
Тип рипа: tracks
Разрядность: 24/44.1
Формат: PCM
Количество каналов: 2.0
Наличие сканов в содержимом раздачи: Нет
Источник (релизер): Bandcamp [name your price]
Треклист:
01. Chronos - Arkturus (Remastered) (7:28)
02. Chronos - Leaving Geia (Mechanical Edit) (Remastered) (5:47)
03. Chronos - Sequenced Engine (Remastered) (7:14)
04. Chronos - Hi Tech Mosaic (Remastered) (6:42)
05. Chronos - Zirda (Remastered) (8:15)
06. Chronos - Achronon (Remastered) (8:56)
07. Chronos - One Touch & Whole Life (Remastered) (7:23)
08. Chronos - Broken Song (Remastered) (5:37)
09. Chronos - Pain Feedback (Remastered) (9:58)
Лог проверки качества

Код:

foobar2000 1.5.5 / Замер динамического диапазона (DR) 1.1.1
Дата отчёта:  2021-03-26 09:48:10

--------------------------------------------------------------------------------
Анализ:   Chronos / MARS (5-years Anniversary)
--------------------------------------------------------------------------------

DR         Пики         RMS           Продолжительность трека
--------------------------------------------------------------------------------
DR6       -0.30 дБ    -8.35 дБ      7:28 01-Arkturus (Remastered)
DR6       -0.30 дБ    -8.54 дБ      5:47 02-Leaving Geia (Mechanical Edit) (Remastered)
DR6       -0.80 дБ    -9.51 дБ      7:14 03-Sequenced Engine (Remastered)
DR7       -0.57 дБ    -9.10 дБ      6:42 04-Hi Tech Mosaic (Remastered)
DR7       -0.27 дБ    -8.96 дБ      8:15 05-Zirda (Remastered)
DR7       -0.24 дБ    -9.75 дБ      8:56 06-Achronon (Remastered)
DR7       -0.31 дБ    -9.69 дБ      7:23 07-One Touch & Whole Life (Remastered)
DR6       -0.50 дБ    -9.33 дБ      5:37 08-Broken Song (Remastered)
DR6       -1.00 дБ    -9.54 дБ      9:58 09-Pain Feedback (Remastered)
--------------------------------------------------------------------------------

Количество треков: 9
Реальные значения DR: DR6

Частота:   44100 Гц
Каналов:   2
Разрядность:   24
Битрейт:   1619 кбит/с
Кодек:   FLAC
================================================================================




Chronos - 2017 - MARS (5​-​years Anniversary) (24-44.1 - FLAC).torrent
Трекер: Зарегистрирован

magnet ссылка

 


Скачать .torrent

16 KB

Статус: проверено (by Snowden в 08-Апр-21 10:42)
Зарегистрирован: 08-Апр-21 05:28
Скачан: 16 раз
Размер: 768 MB | 
Поблагодарили:
Скачать (Ambient, PsyChill) Chronos - MARS (5 - years Anniversary) - 2017, [TR24] [OF] [FLAC, tracks, lossless] торрент
 


Похожие раздачи

Текущее время: 14-Апр 16:31

Часовой пояс: GMT + 3



Вы не можете начинать темы
Вы не можете отвечать на сообщения
Вы не можете редактировать свои сообщения
Вы не можете удалять свои сообщения
Вы не можете голосовать в опросах
Вы не можете прикреплять файлы к сообщениям
Вы не можете скачивать файлы