Loading...
Error
 

Скачать торрент (JPop) Reina Ueda - Nebula - 2021, [TR24] [OF] [FLAC, tracks, lossless]

 
Автор Сообщение

Myster_Ya

post 29-Авг-21 20:19

pic
Reina Ueda - Nebula

Формат записи/Источник записи: [TR24][OF]
Наличие водяных знаков: Нет
Год издания: 2021.08.18
Жанр: JPop
Издатель (лейбл): Lantis
Продолжительность: 00:41:26
Контейнер: FLAC (*.flac)
Тип рипа: tracks
Разрядность: 24/96
Формат: PCM
Количество каналов: 2.0
Источник (релизер): mora.jp
Наличие сканов в содержимом раздачи: Нет
Треклист:
01. うつくしいひと [04:48]
02. 白昼夢 [03:57]
03. Poeme en prose [01:55]
04. scapesheep [03:29]
05. アリアドネ [04:25]
06. デスコロール [04:16]
07. プランクトン [05:15]
08. anemone [04:41]
09. わたしのままで [05:14]
10. wall [03:31]
DR

Код:

foobar2000 1.6.2 / Замер динамического диапазона (DR) 1.1.1
Дата отчёта:    2021-08-29 20:06:38

--------------------------------------------------------------------------------
Анализ:   上田麗奈 / Nebula
--------------------------------------------------------------------------------

DR         Пики         RMS           Продолжительность трека
--------------------------------------------------------------------------------
DR7       -0.10 дБ    -9.56 дБ      4:47 01-うつくしいひと
DR5       -0.10 дБ    -7.08 дБ      3:57 02-白昼夢
DR10      -0.10 дБ   -12.66 дБ      1:55 03-Poème en prose
DR6       -0.10 дБ    -7.35 дБ      3:29 04-scapesheep
DR7       -0.10 дБ    -9.49 дБ      4:24 05-アリアドネ
DR5       -0.10 дБ    -7.66 дБ      4:15 06-デスコロール
DR7       -0.10 дБ    -9.02 дБ      5:15 07-プランクトン
DR8       -0.10 дБ    -9.68 дБ      4:40 08-anemone
DR7       -0.10 дБ    -9.46 дБ      5:13 09-わたしのままで
DR6       -0.10 дБ   -10.03 дБ      3:30 10-wall
--------------------------------------------------------------------------------

Количество треков:  10
Реальные значения DR:  DR7

Частота:      96000 Гц
Каналов:      2
Разрядность:     24
Битрейт:      2780 кбит/с
Кодек:      FLAC
================================================================================
上田麗奈 / 「Nebula」視聴動画

Reina Ueda - Nebula (2021.08.18) (24-96) (FLAC).torrent
Трекер: Зарегистрирован

magnet ссылка

 


Скачать .torrent

17 KB

Статус: проверено (by Myster_Ya в 29-Авг-21 20:20)
Зарегистрирован: 29-Авг-21 20:19
Скачан: 4 раза
Размер: 820 MB | 
Поблагодарили:
Скачать (JPop) Reina Ueda - Nebula - 2021, [TR24] [OF] [FLAC, tracks, lossless] торрент
 


Похожие раздачи

Текущее время: 25-Сен 18:34

Часовой пояс: GMT + 3



Вы не можете начинать темы
Вы не можете отвечать на сообщения
Вы не можете редактировать свои сообщения
Вы не можете удалять свои сообщения
Вы не можете голосовать в опросах
Вы не можете прикреплять файлы к сообщениям
Вы не можете скачивать файлы