Loading...
Error
 

Скачать торрент (Synth-Pop, Electronic) Pet Shop Boys - Inner Sanctum: Live - The Royal Opera House (London) + Live - Rock In Rio (2017) - 2019 [FLAC, image +.cue, lossless]

 
Автор Сообщение

trygg

post 09-Сен-21 16:48


Pet Shop Boys - Inner Sanctum: Live - The Royal Opera House (London) + Live - Rock In Rio (2017)


pic
Год издания: 2019
Страна: UK pic
Жанр: Synth-Pop, Electronic
Продолжительность: 02:45:53
Лейбл издания: x2
Страна-выпуска диска: EU pic
Номер по каталогу: 5056167112167
Формат: FLAC
Битрейт аудио: Lossless
Тип рипа: image +.cue
Наличие сканов в содержимом раздачи: да

pic
Трэклист
pic
CD 1 - Live @ The Royal Opera House (London) | 01:45:14
pic
01. Inner sanctum (Live) (4:36)
02. Opportunities (let's make lots of money) (Live) (2:52)
03. The Pop Kids \ In the night \ Burn (Live) (11:13)
04. Love is a bourgeois construct (Live) (6:42)
05. New York City boy (Live) (3:42)
06. Se a vida e (That's the way life is) (Live) (4:17)
07. Love comes quickly (Live) (5:39)
08. Love etc. (Live) (3:49)
09. The dictator decides \ Inside a dream (Live) (9:21)
10. West End girls (Live) (5:03)
11. Home and dry \ The Enigma (Live) (7:38)
12. Vocal \ The Sodom and Gomorrah Show (Live) (8:58)
13. It's a sin (Live) (5:44)
14. Left to my own devices (Live) (5:26)
15. Heart \ Go West (Live) (8:00)
16. Domino dancing (Live) (4:57)
17. Always on my mind (Live) (4:17)
18. The pop kids (reprise) (Live) (3:07)
CD 2 - Live @ Rock In Rio 17.09.2017 (Bonus) | 01:00:39
pic
01. Inner sanctum (Live) (4:36)
02. Opportunities (Let's make lots of money) (Live) (2:46)
03. Burn (Live) (3:41)
04. Se a vida e (That's the way life is) (Live) (4:11)
05. West End girls (Live) (5:01)
06. Home and dry \ The Enigma (Live) (6:08)
07. Vocal \ The Sodom and Gomorrah Show (Live) (8:52)
08. It's a sin (Live) (5:25)
09. Left to my own devices (Live) (5:19)
10. Heart \ Go West (Live) (5:41)
11. Domino dancing (Live) (4:32)
12. Always on my mind (Live) (4:32)

pic
Лог создания рипа
CD 1

Код:

foobar2000 1.5.1 / Dynamic Range Meter 1.1.1
log date: 2021-09-09 07:39:31

--------------------------------------------------------------------------------
Analyzed: Pet Shop Boys / Inner Sanctum (Live)
--------------------------------------------------------------------------------

DR         Peak         RMS     Duration Track
--------------------------------------------------------------------------------
DR11       0.00 dB   -13.11 dB      4:36 01-Inner sanctum (Live)
DR9        0.00 dB   -10.60 dB      2:52 02-Opportunities (let's make lots of money) (Live)
DR11       0.00 dB   -12.33 dB     11:13 03-The Pop Kids \ In the night \ Burn (Live)
DR11       0.00 dB   -12.73 dB      6:42 04-Love is a bourgeois construct (Live)
DR11       0.00 dB   -12.23 dB      3:42 05-New York City boy (Live)
DR9        0.00 dB   -10.54 dB      4:17 06-Se a vida e (That's the way life is) (Live)
DR10       0.00 dB   -12.02 dB      5:39 07-Love comes quickly (Live)
DR11       0.00 dB   -12.48 dB      3:48 08-Love etc. (Live)
DR11       0.00 dB   -12.63 dB      9:21 09-The dictator decides \ Inside a dream (Live)
DR11       0.00 dB   -12.25 dB      5:02 10-West End girls (Live)
DR9        0.00 dB   -11.48 dB      7:38 11-Home and dry \ The Enigma (Live)
DR10       0.00 dB   -12.29 dB      8:58 12-Vocal \ The Sodom and Gomorrah Show (Live)
DR10       0.00 dB   -11.69 dB      5:43 13-It's a sin (Live)
DR10       0.00 dB   -12.22 dB      5:26 14-Left to my own devices (Live)
DR11       0.00 dB   -12.47 dB      7:59 15-Heart \ Go West (Live)
DR11       0.00 dB   -13.08 dB      4:56 16-Domino dancing (Live)
DR9        0.00 dB   -10.19 dB      4:16 17-Always on my mind (Live)
DR10       0.00 dB   -12.92 dB      3:07 18-The pop kids (reprise) (Live)
--------------------------------------------------------------------------------

Number of tracks:  18
Official DR value: DR10

Samplerate:        48000 Hz
Channels:          2
Bits per sample:   24
Bitrate:           1788 kbps
Codec:             FLAC
CD 2

Код:

foobar2000 1.5.1 / Dynamic Range Meter 1.1.1
log date: 2021-09-09 07:39:31

--------------------------------------------------------------------------------
Analyzed: Pet Shop Boys / Live @ Rock In Rio 17.09.17 (Bonus)
--------------------------------------------------------------------------------

DR         Peak         RMS     Duration Track
--------------------------------------------------------------------------------
DR11       0.00 dB   -14.60 dB      4:35 01-Inner sanctum (Live)
DR10       0.00 dB   -11.71 dB      2:45 02-Opportunities (Let's make lots of money) (Live)
DR9        0.00 dB   -12.50 dB      3:41 03-Burn (Live)
DR11       0.00 dB   -12.03 dB      4:11 04-Se a vida e (That's the way life is) (Live)
DR11       0.00 dB   -13.22 dB      5:01 05-West End girls (Live)
DR10       0.00 dB   -12.60 dB      6:07 06-Home and dry \ The Enigma (Live)
DR10       0.00 dB   -12.52 dB      8:52 07-Vocal \ The Sodom and Gomorrah Show (Live)
DR10       0.00 dB   -11.78 dB      5:25 08-It's a sin (Live)
DR11       0.00 dB   -13.34 dB      5:18 09-Left to my own devices (Live)
DR10       0.00 dB   -13.14 dB      5:40 10-Heart \ Go West (Live)
DR11       0.00 dB   -13.00 dB      4:32 11-Domino dancing (Live)
DR9        0.00 dB   -11.00 dB      4:31 12-Always on my mind (Live)
--------------------------------------------------------------------------------

Number of tracks:  12
Official DR value: DR10

Samplerate:        48000 Hz
Channels:          2
Bits per sample:   24
Bitrate:           1797 kbps
Codec:             FLAC
Индексная карта (non-compilant .cue)
CD 1

Код:

REM GENRE Synth-Pop, Electronic
REM DATE 2019
PERFORMER "Pet Shop Boys"
TITLE "Inner Sanctum - Live @ The Royal Opera House (London)"
FILE "Pet Shop Boys - Inner Sanctum - Live @ The Royal Opera House (London) (24-48).flac" WAVE
  TRACK 01 AUDIO
    TITLE "Inner sanctum (Live)"
    PERFORMER "Pet Shop Boys"
    INDEX 01 00:00:00
  TRACK 02 AUDIO
    TITLE "Opportunities (let's make lots of money) (Live)"
    PERFORMER "Pet Shop Boys"
    INDEX 01 04:35:69
  TRACK 03 AUDIO
    TITLE "The Pop Kids \ In the night \ Burn (Live)"
    PERFORMER "Pet Shop Boys"
    INDEX 01 07:27:44
  TRACK 04 AUDIO
    TITLE "Love is a bourgeois construct (Live)"
    PERFORMER "Pet Shop Boys"
    INDEX 01 18:40:11
  TRACK 05 AUDIO
    TITLE "New York City boy (Live)"
    PERFORMER "Pet Shop Boys"
    INDEX 01 25:22:02
  TRACK 06 AUDIO
    TITLE "Se a vida e (That's the way life is) (Live)"
    PERFORMER "Pet Shop Boys"
    INDEX 01 29:03:57
  TRACK 07 AUDIO
    TITLE "Love comes quickly (Live)"
    PERFORMER "Pet Shop Boys"
    INDEX 01 33:20:24
  TRACK 08 AUDIO
    TITLE "Love etc. (Live)"
    PERFORMER "Pet Shop Boys"
    INDEX 01 38:59:08
  TRACK 09 AUDIO
    TITLE "The dictator decides \ Inside a dream (Live)"
    PERFORMER "Pet Shop Boys"
    INDEX 01 42:47:23
  TRACK 10 AUDIO
    TITLE "West End girls (Live)"
    PERFORMER "Pet Shop Boys"
    INDEX 01 52:08:04
  TRACK 11 AUDIO
    TITLE "Home and dry \ The Enigma (Live)"
    PERFORMER "Pet Shop Boys"
    INDEX 01 57:10:38
  TRACK 12 AUDIO
    TITLE "Vocal \ The Sodom and Gomorrah Show (Live)"
    PERFORMER "Pet Shop Boys"
    INDEX 01 64:48:25
  TRACK 13 AUDIO
    TITLE "It's a sin (Live)"
    PERFORMER "Pet Shop Boys"
    INDEX 01 73:46:08
  TRACK 14 AUDIO
    TITLE "Left to my own devices (Live)"
    PERFORMER "Pet Shop Boys"
    INDEX 01 79:29:18
  TRACK 15 AUDIO
    TITLE "Heart \ Go West (Live)"
    PERFORMER "Pet Shop Boys"
    INDEX 01 84:54:71
  TRACK 16 AUDIO
    TITLE "Domino dancing (Live)"
    PERFORMER "Pet Shop Boys"
    INDEX 01 92:54:19
  TRACK 17 AUDIO
    TITLE "Always on my mind (Live)"
    PERFORMER "Pet Shop Boys"
    INDEX 01 97:50:48
  TRACK 18 AUDIO
    TITLE "The pop kids (reprise) (Live)"
    PERFORMER "Pet Shop Boys"
    INDEX 01 102:06:70
CD 2

Код:

REM GENRE Synth-Pop, Electronic
REM DATE 2017
PERFORMER "Pet Shop Boys"
TITLE "Live @ Rock In Rio 17.09.17 (Bonus)"
FILE "Pet Shop Boys - Live @ Rock In Rio 17.09.2017 (Bonus) (24-48).flac" WAVE
  TRACK 01 AUDIO
    TITLE "Inner sanctum (Live)"
    PERFORMER "Pet Shop Boys"
    INDEX 01 00:00:00
  TRACK 02 AUDIO
    TITLE "Opportunities (Let's make lots of money) (Live)"
    PERFORMER "Pet Shop Boys"
    INDEX 01 04:35:24
  TRACK 03 AUDIO
    TITLE "Burn (Live)"
    PERFORMER "Pet Shop Boys"
    INDEX 01 07:20:57
  TRACK 04 AUDIO
    TITLE "Se a vida e (That's the way life is) (Live)"
    PERFORMER "Pet Shop Boys"
    INDEX 01 11:01:29
  TRACK 05 AUDIO
    TITLE "West End girls (Live)"
    PERFORMER "Pet Shop Boys"
    INDEX 01 15:12:04
  TRACK 06 AUDIO
    TITLE "Home and dry \ The Enigma (Live)"
    PERFORMER "Pet Shop Boys"
    INDEX 01 20:13:02
  TRACK 07 AUDIO
    TITLE "Vocal \ The Sodom and Gomorrah Show (Live)"
    PERFORMER "Pet Shop Boys"
    INDEX 01 26:20:09
  TRACK 08 AUDIO
    TITLE "It's a sin (Live)"
    PERFORMER "Pet Shop Boys"
    INDEX 01 35:12:05
  TRACK 09 AUDIO
    TITLE "Left to my own devices (Live)"
    PERFORMER "Pet Shop Boys"
    INDEX 01 40:37:00
  TRACK 10 AUDIO
    TITLE "Heart \ Go West (Live)"
    PERFORMER "Pet Shop Boys"
    INDEX 01 45:55:16
  TRACK 11 AUDIO
    TITLE "Domino dancing (Live)"
    PERFORMER "Pet Shop Boys"
    INDEX 01 51:35:49
  TRACK 12 AUDIO
    TITLE "Always on my mind (Live)"
    PERFORMER "Pet Shop Boys"
    INDEX 01 56:07:19

pic
для ознакомления:


pic
pic

Pet Shop Boys - Live @ The Royal Opera House (London) + Live @ Rock In Rio 17.09.2017 (24-48) 2019.torrent
Трекер: Зарегистрирован

magnet ссылка

 


Скачать .torrent

88 KB

Статус: проверено (by E IL o T IR i X в 09-Сен-21 18:13)
Зарегистрирован: 09-Сен-21 16:48
Скачан: 4 раза
Размер: 2.16 GB | 
Поблагодарили:
Скачать (Synth-Pop, Electronic) Pet Shop Boys - Inner Sanctum: Live - The Royal Opera House (London) + Live - Rock In Rio (2017) - 2019 [FLAC, image +.cue, lossless] торрент
 


Похожие раздачи

Текущее время: 25-Сен 18:16

Часовой пояс: GMT + 3



Вы не можете начинать темы
Вы не можете отвечать на сообщения
Вы не можете редактировать свои сообщения
Вы не можете удалять свои сообщения
Вы не можете голосовать в опросах
Вы не можете прикреплять файлы к сообщениям
Вы не можете скачивать файлы