Loading...
Error
 

Скачать торрент (JPop) Suisei Hoshimachi - Still Still Stellar - 2021, [TR24] [OF] [FLAC, tracks, lossless]

 
Автор Сообщение

Myster_Ya

post 30-Сен-21 16:50

pic
Suisei Hoshimachi - Still Still Stellar

Формат записи/Источник записи: [TR24][OF]
Наличие водяных знаков: Нет
Год издания: 2021.09.29
Жанр: JPop
Издатель (лейбл): cover corp.
Продолжительность: 00:49:42
Контейнер: FLAC (*.flac)
Тип рипа: tracks
Разрядность: 24/48
Формат: PCM
Количество каналов: 2.0
Источник (релизер) : mora.jp
Наличие сканов в содержимом раздачи: Нет
Треклист:
01. Stellar Stellar [05:02]
02. NEXT COLOR PLANET [04:20]
03. 天球、彗星は夜を跨いで [04:16]
04. GHOST [04:44]
05. バイバイレイニー [03:34]
06. 自分勝手Dazzling [03:40]
07. Bluerose [03:45]
08. comet [04:05]
09. Andromeda [04:55]
10. Je t’aime。 [03:22]
11. Starry Jet [04:11]
12. 駆けろ [03:53]
Замер динамического диапазона (DR)

Код:

foobar2000 1.6.2 / Замер динамического диапазона (DR) 1.1.1
Дата отчёта:    2021-09-30 16:46:11

--------------------------------------------------------------------------------
Анализ:   星街すいせい / Still Still Stellar
--------------------------------------------------------------------------------

DR         Пики         RMS           Продолжительность трека
--------------------------------------------------------------------------------
DR5       -0.15 дБ    -6.86 дБ      5:01 01-Stellar Stellar
DR6       -0.14 дБ    -6.80 дБ      4:20 02-NEXT COLOR PLANET
DR5       -0.12 дБ    -6.89 дБ      4:16 03-天球、彗星は夜を跨いで
DR5       -0.13 дБ    -6.19 дБ      4:44 04-GHOST
DR6       -0.14 дБ    -7.34 дБ      3:33 05-バイバイレイニー
DR4       -0.11 дБ    -6.38 дБ      3:39 06-自分勝手Dazzling
DR6       -0.15 дБ    -7.17 дБ      3:45 07-Bluerose
DR6       -0.15 дБ    -7.98 дБ      4:05 08-comet
DR5       -0.14 дБ    -7.06 дБ      4:55 09-Andromeda
DR5       -0.15 дБ    -7.34 дБ      3:21 10-Je t'aime。
DR5       -0.15 дБ    -6.39 дБ      4:10 11-Starry Jet
DR5       -0.15 дБ    -6.08 дБ      3:52 12-駆けろ
--------------------------------------------------------------------------------

Количество треков:  12
Реальные значения DR:  DR5

Частота:      48000 Гц
Каналов:      2
Разрядность:     24
Битрейт:      1888 кбит/с
Кодек:      FLAC
================================================================================
Suisei Hoshimachi - Still Still Stellar

Suisei Hoshimachi - Still Still Stellar (2021.09.29) (24-48) (FLAC).torrent
Трекер: Зарегистрирован

magnet ссылка

 


Скачать .torrent

14 KB

Статус: проверено (by Myster_Ya в 30-Сен-21 16:51)
Зарегистрирован: 30-Сен-21 16:50
Скачан: 2 раза
Размер: 682 MB | 
Поблагодарили:
Скачать (JPop) Suisei Hoshimachi - Still Still Stellar - 2021, [TR24] [OF] [FLAC, tracks, lossless] торрент
 


Похожие раздачи

Текущее время: 24-Окт 11:14

Часовой пояс: GMT + 3



Вы не можете начинать темы
Вы не можете отвечать на сообщения
Вы не можете редактировать свои сообщения
Вы не можете удалять свои сообщения
Вы не можете голосовать в опросах
Вы не можете прикреплять файлы к сообщениям
Вы не можете скачивать файлы