Loading...
Error
 

Скачать торрент Reol - Kinjitou [2020, JPop, Blu-ray, 1080p]

 
Автор Сообщение

Myster_Ya

post 20-Мар-22 22:17

Reol - Kinjitou

pic
Общая информация:
Год выпуска: 2020.01.02
Страна: Japan
Жанр: JPop
Композитор: Reol, Giga
Аранжировщик: Giga
Автор текстов: Reol
Продолжительность: 00:52:00
Качество видео: Blu-ray
Контейнер: BDMV
Стандарт разрешения:1080p
Видео кодек: H.264
Аудио кодек: PCM
Видео: MPEG-4 AVC Video / 37500 kbps / 1080p / 23.976 fps / 16:9 / High Profile 4.1
Аудио: Japanese / LPCM Audio / 2.0 / 48 kHz / 2304 kbps / 24-bit
Источник: WEB
Описание:
Бонусный Blu‑Ray диск "Reol - Kinjitou" с записью 6 треков концерта «Reol Oneman Live 2019», + 4 клипа.
Треклист
01. UTENA ウテナ (LIVE 2019 侵攻アップグレード at 新木場STUDIO COAST)
02. PHANTO(ME) / Reol ゆーれいずみー (LIVE 2019 侵攻アップグレード at 新木場STUDIO COAST) / Reol
03. SHINKUU OLD ROSE 真空オールドローズ (LIVE 2019 侵攻アップグレード at 新木場STUDIO COAST)
04. WANNA たい (LIVE 2019 侵攻アップグレード at 新木場STUDIO COAST)
05. BRING IT ON 劣等上等 (LIVE 2019 侵攻アップグレード at 新木場STUDIO COAST)
06. SOMARI 染 (LIVE 2019 侵攻アップグレード at 新木場STUDIO COAST)
07. UTENA ウテナ (Music Video)
08. LOST PARADISE 失楽園 (Music Video)
09. PHANTO(ME) / Reol ゆーれいずみー (Music Video) / Reol
10. MAKING Making
BDInfo
Disc Label: BDMV
Disc Size: 17,204,054,536 bytes
Protection: AACS
BDInfo: 0.7.5.6

Notes:

BDINFO HOME:
Cinema Squid (old)

UniqProject GitHub (new)

INCLUDES FORUMS REPORT FOR:
AVS Forum Blu-ray Audio and Video Specifications Thread

********************
PLAYLIST: 00000.MPLS
********************

<--- BEGIN FORUMS PASTE --->

Код:

                                                                                                                Total   Video                                             
Title                                                           Codec   Length  Movie Size      Disc Size       Bitrate Bitrate Main Audio Track                          Secondary Audio Track
-----                                                           ------  ------- --------------  --------------  ------- ------- ------------------                        ---------------------
00000.MPLS                                                      AVC     0:27:21 8,547,452,928   17,204,054,536  41.66   37.50   LPCM 2.0 2304Kbps (48kHz/24-bit)         


Код:



DISC INFO:

Disc Label:     BDMV
Disc Size:      17,204,054,536 bytes
Protection:     AACS
BDInfo:         0.7.5.6

PLAYLIST REPORT:

Name:                   00000.MPLS
Length:                 0:27:21.348 (h:m:s.ms)
Size:                   8,547,452,928 bytes
Total Bitrate:          41.66 Mbps

VIDEO:

Codec                   Bitrate             Description     
-----                   -------             -----------     
MPEG-4 AVC Video        37500 kbps          1080p / 23.976 fps / 16:9 / High Profile 4.1

AUDIO:

Codec                           Language        Bitrate         Description     
-----                           --------        -------         -----------     
LPCM Audio                      Japanese        2304 kbps       2.0 / 48 kHz /  2304 kbps / 24-bit

FILES:

Name            Time In         Length          Size            Total Bitrate   
----            -------         ------          ----            -------------   
00006.M2TS      0:00:00.000     0:03:20.325     1,043,214,336   41,661         
00007.M2TS      0:03:20.325     0:00:04.004     20,852,736      41,664         
00008.M2TS      0:03:24.329     0:04:16.589     1,336,209,408   41,661         
00009.M2TS      0:07:40.918     0:00:03.003     15,642,624      41,672         
00010.M2TS      0:07:43.921     0:04:06.663     1,284,519,936   41,661         
00011.M2TS      0:11:50.584     0:00:04.004     20,852,736      41,664         
00012.M2TS      0:11:54.588     0:15:01.775     4,696,068,096   41,661         
00015.M2TS      0:26:56.364     0:00:24.983     130,093,056     41,658         

CHAPTERS:

Number          Time In         Length          Avg Video Rate  Max 1-Sec Rate  Max 1-Sec Time  Max 5-Sec Rate  Max 5-Sec Time  Max 10Sec Rate  Max 10Sec Time  Avg Frame Size  Max Frame Size  Max Frame Time 
------          -------         ------          --------------  --------------  --------------  --------------  --------------  --------------  --------------  --------------  --------------  -------------- 
1               0:00:00.000     0:03:24.329     37,500 kbps     45,464 kbps     00:01:07.233    39,340 kbps     00:01:03.229    38,443 kbps     00:00:58.224    195,469 bytes   605,516 bytes   00:01:47.816   
2               0:03:24.329     0:04:19.592     37,509 kbps     43,351 kbps     00:07:33.786    38,818 kbps     00:03:42.680    38,290 kbps     00:03:37.508    195,552 bytes   601,760 bytes   00:03:46.225   
3               0:07:43.921     0:04:10.667     37,491 kbps     48,903 kbps     00:11:21.639    40,020 kbps     00:11:17.676    38,636 kbps     00:11:12.671    195,461 bytes   636,369 bytes   00:11:01.243   
4               0:11:54.588     0:07:17.436     37,500 kbps     43,069 kbps     00:19:09.982    38,340 kbps     00:15:29.261    37,957 kbps     00:19:01.056    195,507 bytes   387,109 bytes   00:14:39.420   
5               0:19:12.025     0:08:09.322     37,500 kbps     43,951 kbps     00:26:54.654    38,753 kbps     00:26:50.650    38,145 kbps     00:26:45.645    195,523 bytes   625,844 bytes   00:26:55.613   

STREAM DIAGNOSTICS:

File            PID             Type            Codec           Language                Seconds                 Bitrate                 Bytes           Packets         
----            ---             ----            -----           --------                --------------          --------------          -------------   -----           
00006.M2TS      4113 (0x1011)   0x1B            AVC                                     200.158                 37,531                  939,021,623     5,106,157       
00006.M2TS      4352 (0x1100)   0x80            LPCM            jpn (Japanese)          200.158                 2,312                   57,855,304      320,528         
00007.M2TS      4113 (0x1011)   0x1B            AVC                                     3.921                   38,298                  18,768,705      102,053         
00007.M2TS      4352 (0x1100)   0x80            LPCM            jpn (Japanese)          3.921                   2,360                   1,156,644       6,408           
00008.M2TS      4113 (0x1011)   0x1B            AVC                                     256.465                 37,518                  1,202,760,987   6,540,305       
00008.M2TS      4352 (0x1100)   0x80            LPCM            jpn (Japanese)          256.465                 2,312                   74,103,192      410,544         
00009.M2TS      4113 (0x1011)   0x1B            AVC                                     2.878                   39,130                  14,076,530      76,539         
00009.M2TS      4352 (0x1100)   0x80            LPCM            jpn (Japanese)          2.878                   2,412                   867,844         4,808           
00010.M2TS      4113 (0x1011)   0x1B            AVC                                     246.496                 37,525                  1,156,230,247   6,287,293       
00010.M2TS      4352 (0x1100)   0x80            LPCM            jpn (Japanese)          246.496                 2,312                   71,236,852      394,664         
00011.M2TS      4113 (0x1011)   0x1B            AVC                                     3.921                   38,298                  18,768,705      102,053         
00011.M2TS      4352 (0x1100)   0x80            LPCM            jpn (Japanese)          3.921                   2,360                   1,156,644       6,408           
00012.M2TS      4113 (0x1011)   0x1B            AVC                                     901.609                 37,507                  4,227,063,596   22,985,652     
00012.M2TS      4352 (0x1100)   0x80            LPCM            jpn (Japanese)          901.609                 2,311                   260,434,064     1,442,848       
00015.M2TS      4113 (0x1011)   0x1B            AVC                                     24.858                  37,689                  117,108,883     636,754         
00015.M2TS      4352 (0x1100)   0x80            LPCM            jpn (Japanese)          24.858                  2,322                   7,215,668       39,976         

<---- END FORUMS PASTE ---->

QUICK SUMMARY:

Disc Label: BDMV
Disc Size: 17,204,054,536 bytes
Protection: AACS
Playlist: 00000.MPLS
Size: 8,547,452,928 bytes
Length: 0:27:21.348
Total Bitrate: 41.66 Mbps
Video: MPEG-4 AVC Video / 37500 kbps / 1080p / 23.976 fps / 16:9 / High Profile 4.1
Audio: Japanese / LPCM Audio / 2.0 / 48 kHz / 2304 kbps / 24-bit

********************
PLAYLIST: 00003.MPLS
********************

<--- BEGIN FORUMS PASTE --->

Код:

                                                                                                                Total   Video                                             
Title                                                           Codec   Length  Movie Size      Disc Size       Bitrate Bitrate Main Audio Track                          Secondary Audio Track
-----                                                           ------  ------- --------------  --------------  ------- ------- ------------------                        ---------------------
00003.MPLS                                                      AVC     0:25:06 7,842,834,432   17,204,054,536  41.66   37.50   LPCM 2.0 2304Kbps (48kHz/24-bit)         


Код:



DISC INFO:

Disc Label:     BDMV
Disc Size:      17,204,054,536 bytes
Protection:     AACS
BDInfo:         0.7.5.6

PLAYLIST REPORT:

Name:                   00003.MPLS
Length:                 0:25:06.046 (h:m:s.ms)
Size:                   7,842,834,432 bytes
Total Bitrate:          41.66 Mbps

VIDEO:

Codec                   Bitrate             Description     
-----                   -------             -----------     
MPEG-4 AVC Video        37500 kbps          1080p / 23.976 fps / 16:9 / High Profile 4.1

AUDIO:

Codec                           Language        Bitrate         Description     
-----                           --------        -------         -----------     
LPCM Audio                      Japanese        2304 kbps       2.0 / 48 kHz /  2304 kbps / 24-bit

FILES:

Name            Time In         Length          Size            Total Bitrate   
----            -------         ------          ----            -------------   
00000.M2TS      0:00:00.000     0:25:03.043     7,827,191,808   41,661         
00003.M2TS      0:25:03.043     0:00:03.003     15,642,624      41,672         

CHAPTERS:

Number          Time In         Length          Avg Video Rate  Max 1-Sec Rate  Max 1-Sec Time  Max 5-Sec Rate  Max 5-Sec Time  Max 10Sec Rate  Max 10Sec Time  Avg Frame Size  Max Frame Size  Max Frame Time 
------          -------         ------          --------------  --------------  --------------  --------------  --------------  --------------  --------------  --------------  --------------  -------------- 
1               0:00:00.000     0:03:19.490     37,505 kbps     43,537 kbps     00:03:14.861    39,270 kbps     00:01:10.028    38,383 kbps     00:01:05.023    195,495 bytes   434,563 bytes   00:03:15.612   
2               0:03:19.490     0:03:58.655     37,497 kbps     43,611 kbps     00:04:11.501    38,722 kbps     00:04:07.497    38,061 kbps     00:06:47.949    195,493 bytes   510,627 bytes   00:06:42.110   
3               0:07:18.146     0:04:16.047     37,500 kbps     51,812 kbps     00:07:32.743    40,232 kbps     00:08:43.231    38,885 kbps     00:08:38.184    195,507 bytes   639,430 bytes   00:08:48.069   
4               0:11:34.193     0:04:16.047     37,500 kbps     43,771 kbps     00:15:20.920    39,211 kbps     00:15:04.695    38,236 kbps     00:14:59.607    195,508 bytes   499,525 bytes   00:12:54.482   
5               0:15:50.240     0:04:19.092     37,500 kbps     47,283 kbps     00:19:16.613    39,288 kbps     00:18:39.201    38,345 kbps     00:19:07.604    195,507 bytes   639,099 bytes   00:19:11.150   
6               0:20:09.333     0:04:56.713     37,498 kbps     41,918 kbps     00:21:35.460    38,402 kbps     00:21:31.373    37,955 kbps     00:21:26.410    195,527 bytes   465,579 bytes   00:23:01.213   

STREAM DIAGNOSTICS:

File            PID             Type            Codec           Language                Seconds                 Bitrate                 Bytes           Packets         
----            ---             ----            -----           --------                --------------          --------------          -------------   -----           
00000.M2TS      4113 (0x1011)   0x1B            AVC                                     1502.876                37,504                  7,045,497,006   38,311,391     
00000.M2TS      4352 (0x1100)   0x80            LPCM            jpn (Japanese)          1502.876                2,311                   434,079,396     2,404,872       
00003.M2TS      4113 (0x1011)   0x1B            AVC                                     2.878                   39,130                  14,076,530      76,539         
00003.M2TS      4352 (0x1100)   0x80            LPCM            jpn (Japanese)          2.878                   2,412                   867,844         4,808           

<---- END FORUMS PASTE ---->

QUICK SUMMARY:

Disc Label: BDMV
Disc Size: 17,204,054,536 bytes
Protection: AACS
Playlist: 00003.MPLS
Size: 7,842,834,432 bytes
Length: 0:25:06.046
Total Bitrate: 41.66 Mbps
Video: MPEG-4 AVC Video / 37500 kbps / 1080p / 23.976 fps / 16:9 / High Profile 4.1
Audio: Japanese / LPCM Audio / 2.0 / 48 kHz / 2304 kbps / 24-bit
Скриншоты
YouTube movie

Reol - Kinjitou 2020 Blu-ray.torrent
Трекер: Зарегистрирован

magnet ссылка

 


Скачать .torrent

44 KB

Статус: проверено (by Myster_Ya в 20-Мар-22 22:17)
Зарегистрирован: 20-Мар-22 22:17
Скачан: 2 раза
Размер: 16.02 GB | 
Поблагодарили:
Скачать Reol - Kinjitou [2020, JPop, Blu-ray, 1080p] торрент
 


Похожие раздачи

Текущее время: 29-Сен 10:41

Часовой пояс: GMT + 3



Вы не можете начинать темы
Вы не можете отвечать на сообщения
Вы не можете редактировать свои сообщения
Вы не можете удалять свои сообщения
Вы не можете голосовать в опросах
Вы не можете прикреплять файлы к сообщениям
Вы не можете скачивать файлы