Loading...
Error
 

Скачать торрент (Pop) VA - CAROLE & TUESDAY VOCAL COLLECTION Vol.2 - 2019, [TR24] [OF] [FLAC, tracks, lossless]

 
Автор Сообщение

Myster_Ya

post 04-Апр-22 20:48

VA - CAROLE & TUESDAY VOCAL COLLECTION Vol.2

pic
Формат записи/Источник записи: [TR24][OF]
Наличие водяных знаков: Нет
Год издания: 2019.10.30
Жанр: Pop
Издатель (лейбл): flying DOG
Catalog number: VTCL-60507
Продолжительность: 01:12:57
Контейнер: FLAC (*.flac)
Тип рипа: tracks
Разрядность: 24bit/48kHz
Формат: PCM
Количество каналов: 2.0
Источник (релизер) : mora.jp
Наличие сканов в содержимом раздачи: Нет
Треклист
01. Army Of Two Street Scene [01:23]
02. Breathe Again [04:06]
03. Army Of Two [03:53]
04. Miserere mei, Deus [04:40]
05. All I See [04:24]
06. Give You The World [03:23]
07. Give You The World C&T ver. [03:23]
08. Day By Day [03:26]
09. Threads [03:30]
10. Take Me Now [02:22]
11. LIGHTS GO OUT [03:08]
12. Message in the Wind [03:54]
13. Beautiful Breakdown [04:22]
14. Lay It All On Me [04:14]
15. After the fire [03:48]
16. After the fire Mars Grammy Scene [03:49]
17. Endless [04:07]
18. The Tower [03:56]
19. Mother [07:09]
Лог Dynamic Range Meter

Код:

foobar2000 1.6.2 / Замер динамического диапазона (DR) 1.1.1
Дата отчёта:    2022-04-04 20:44:40

--------------------------------------------------------------------------------
Анализ:   VOICES FROM MARS / CAROLE & TUESDAY VOCAL COLLECTION Vol.2 (1)
          アーティガン feat. アンジェラ(Vo. Alisa) / CAROLE & TUESDAY VOCAL COLLECTION Vol.2 (2)
          アーティガン / CAROLE & TUESDAY VOCAL COLLECTION Vol.2 (3)
          アンジェラ (Vo.Alisa) / CAROLE & TUESDAY VOCAL COLLECTION Vol.2 (4-6)
          キャロル&チューズデイ(Vo.Nai Br.XX&Celeina Ann) feat. クリスタル (Vo. Lauren Dyson) / CAROLE & TUESDAY VOCAL COLLECTION Vol.2 (7)
          キャロル&チューズデイ(Vo.Nai Br.XX&Celeina Ann) / CAROLE & TUESDAY VOCAL COLLECTION Vol.2 (8-16)
          デズモンド(Vo.Marker Starling) / CAROLE & TUESDAY VOCAL COLLECTION Vol.2 (17-18)
          フローラ(Vo.Jessica Karpov) / CAROLE & TUESDAY VOCAL COLLECTION Vol.2 (19)
--------------------------------------------------------------------------------

DR         Пики         RMS           Продолжительность трека
--------------------------------------------------------------------------------
DR7       -0.10 дБ    -9.57 дБ      7:09 19-Mother
DR4       -4.50 дБ   -10.48 дБ      3:09 11-LIGHTS GO OUT
DR4       -4.50 дБ   -10.73 дБ      2:23 10-Take Me Now
DR5       -2.40 дБ   -11.22 дБ      4:07 02-Breathe Again
DR8       -0.10 дБ   -11.12 дБ      4:07 17-Endless
DR7       -2.31 дБ   -11.58 дБ      3:57 18-The Tower
DR7       -0.10 дБ    -8.74 дБ      3:49 16-After the fire Mars Grammy Scene
DR11      -0.10 дБ   -14.00 дБ      1:23 01-Army Of Two Street Scene
DR9       -0.10 дБ   -11.21 дБ      3:53 03-Army Of Two
DR9       -0.10 дБ   -11.96 дБ      3:23 07-Give You The World C&T ver.
DR8       -0.10 дБ    -9.60 дБ      3:26 08-Day By Day
DR13      -0.10 дБ   -16.20 дБ      3:30 09-Threads
DR9       -0.10 дБ   -11.28 дБ      3:55 12-Message in the Wind
DR8       -0.10 дБ    -9.74 дБ      4:23 13-Beautiful Breakdown
DR10      -0.10 дБ   -12.34 дБ      4:15 14-Lay It All On Me
DR7       -0.10 дБ    -8.85 дБ      3:49 15-After the fire
DR9       -0.10 дБ   -11.53 дБ      4:41 04-Miserere mei, Deus
DR8       -0.10 дБ   -11.08 дБ      4:24 05-All I See
DR8       -0.10 дБ    -9.10 дБ      3:24 06-Give You The World
--------------------------------------------------------------------------------

Количество треков:  19
Реальные значения DR:  DR8

Частота:      48000 Гц
Каналов:      2
Разрядность:     24
Битрейт:      1751 кбит/с
Кодек:      FLAC
================================================================================

VA - CAROLE & TUESDAY VOCAL COLLECTION Vol.2 (24-48) (FLAC).torrent
Трекер: Зарегистрирован

magnet ссылка

 


Скачать .torrent

18 KB

Статус: проверено (by Myster_Ya в 04-Апр-22 20:49)
Зарегистрирован: 04-Апр-22 20:48
Скачан: 6 раз
Размер: 864 MB | 
Поблагодарили:
Скачать (Pop) VA - CAROLE & TUESDAY VOCAL COLLECTION Vol.2 - 2019, [TR24] [OF] [FLAC, tracks, lossless] торрент
 


Похожие раздачи

Текущее время: 03-Июл 11:45

Часовой пояс: GMT + 3



Вы не можете начинать темы
Вы не можете отвечать на сообщения
Вы не можете редактировать свои сообщения
Вы не можете удалять свои сообщения
Вы не можете голосовать в опросах
Вы не можете прикреплять файлы к сообщениям
Вы не можете скачивать файлы