Loading...
Error
 

Скачать торрент Боруто: Следующее поколение Наруто / Boruto: Naruto Next Generations (Датэ Хаято) [155-243 из XXX[RUS][2017-2022, Приключения, комедия, боевые искусства, сёнэн, HDTV 1080p] [AniDub]

 
Автор Сообщение

ichigo11

post 11-Апр-22 14:04

pic
Боруто: Следующее поколение Наруто / Boruto: Naruto Next Generations

Год выпуска: 2017-2022
Страна: Япония
Жанр: Приключения, комедия, боевые искусства, сёнэн
Продолжительность: ~ 00:24:00
Серии: 155-243 из XXX
Перевод: Любительский Одноголосый [AniDub]
Студия: pic
Режиссёр: Датэ Хаято
Описание: Прошли годы после окончания Четвертой мировой войны шиноби, времена изменились, грядет смена поколений. Главным героем фильма на сей раз станет мальчик Боруто - ученик Академии ниндзя, сын легендарного ниндзя Наруто Узумаки.
Качество: HDTV 1080p
Формат: mp4
Видео кодек: AVC
Аудио кодек: AAC
Видео: MPEG4 AVC, 1920х1080, 3 028 kb/s, 24,047 fps
Аудио: AAC LC, 48.0 KHz, 2ch, 192 kbps
MediaInfo
General
Общее
Полное имя : D:\MY Torrents\[AniDub]_Boruto_-_Naruto_Next_Generations_1080p\[AniDub]_Boruto_-_Naruto_Next_Generations_[155]_[1080p_x264_Aac]_[MVO].mp4
Формат : MPEG-4
Профиль формата : Base Media
Идентификатор кодека : isom (isom/iso2/avc1/mp41)
Размер файла : 563 Мбайт
Продолжительность : 24 м. 23 с.
Режим общего битрейта : Переменный
Общий поток : 3 226 Кбит/сек
Программа кодирования : Lavf58.47.100

Видео
Идентификатор : 1
Формат : AVC
Формат/Информация : Advanced Video Codec
Профиль формата : [email protected]
Настройки формата : CABAC / 2 Ref Frames
Параметр CABAC формата : Да
Параметр RefFrames формата : 2 кадра
Параметр GOP формата : M=2, N=48
Идентификатор кодека : avc1
Идентификатор кодека/Информация : Advanced Video Coding
Продолжительность : 24 м. 23 с.
Продолжительность оригинала : 24 м. 23 с.
Вид битрейта : Переменный
Битрейт : 3 028 Кбит/сек
Максимальный битрейт : 6 000 Кбит/сек
Ширина : 1 920 пикселей
Высота : 1 080 пикселей
Соотношение сторон : 16:9
Режим частоты кадров : Переменный
Частота кадров : 24,047 кадра/сек
Минимальная частота кадров : 4,801 кадров/сек
Максимальная частота кадров : 30,000 кадров/сек
Частота кадров в оригинале : 30,000 кадров/сек
Цветовое пространство : YUV
Субдискретизация насыщенности : 4:2:0
Битовая глубина : 8 бит
Тип развёртки : Прогрессивная
Бит/(Пиксели*Кадры) : 0.061
Размер потока : 528 Мбайт (94%)
Размер потока оригинала : 528 Мбайт (94%)
mdhd_Duration : 1463531
Codec configuration box : avcC

Аудио
Идентификатор : 2
Формат : AAC LC
Формат/Информация : Advanced Audio Codec Low Complexity
Идентификатор кодека : mp4a-40-2
Продолжительность : 24 м. 23 с.
Вид битрейта : Переменный
Битрейт : 192 Кбит/сек
Максимальный битрейт : 196 Кбит/сек
Каналы : 2 канала
Channel layout : L R
Частота : 48,0 КГц
Частота кадров : 46,875 кадров/сек (1024 SPF)
Метод сжатия : С потерями
Размер потока : 33,4 Мбайт (6%)
Default : Да
Alternate group : 1

Скриншоты
Внимание! Присутствует реклама!

(AniDub)_Boruto_-_Naruto_Next_Generations_1080p.torrent
 ЗОЛОТАЯ РАЗДАЧА! СКАЧАННОЕ НЕ ЗАСЧИТЫВАЕТСЯ! 
Вечный
Трекер: Зарегистрирован

magnet ссылка

 


Скачать .torrent

172 KB

Статус: проверено (by ilyash_rekviem в 12-Апр-22 20:06)
Зарегистрирован: 11-Апр-22 14:04
Скачан: 7 раз
Размер: 64.64 GB | 
Поблагодарили:
Скачать Боруто: Следующее поколение Наруто / Boruto: Naruto Next Generations (Датэ Хаято) [155-243 из XXX[RUS][2017-2022, Приключения, комедия, боевые искусства, сёнэн, HDTV 1080p] [AniDub] торрент
 


Похожие раздачи

ichigo11

post 11-Апр-22 14:04 (спустя 28 секунд)

For information:

Текущее время: 29-Май 13:57

Часовой пояс: GMT + 3



Вы не можете начинать темы
Вы не можете отвечать на сообщения
Вы не можете редактировать свои сообщения
Вы не можете удалять свои сообщения
Вы не можете голосовать в опросах
Вы не можете прикреплять файлы к сообщениям
Вы не можете скачивать файлы