Loading...
Error
 

Скачать торрент (JPop) Gesu no Kiwami Otome - Best Album Maru - 2022, [TR24] [OF] [FLAC, tracks, lossless]

 
Автор Сообщение

Myster_Ya

post 13-Май-22 15:16

Gesu no Kiwami Otome - Best Album Maru

pic
Формат записи/Источник записи: [TR24][OF]
Наличие водяных знаков: Нет
Год издания: 2022.05.11
Жанр: JPop
Издатель (лейбл): WM Japan
Продолжительность: 02:43:24
Контейнер: FLAC (*.flac)
Тип рипа: tracks
Разрядность: 24bit/48kHz
Формат: PCM
Количество каналов: 2.0
Источник (релизер) : ototoy.jp
Наличие сканов в содержимом раздачи: Нет
Треклист
01. 青い裸 [03:29]
02. 発生中 [01:59]
03. ロマンスがありあまる(2022 Remaster)[03:43]
04. オトナチック(2022 Remaster)[04:27]
05. 私以外私じゃないの(2022 Remaster)[03:52]
06. 両成敗でいいじゃない(2022 Remaster)[03:50]
07. サイデンティティ(2022 Remaster)[03:24]
08. ラスカ(2022 Remaster)[03:59]
09. デジタルモグラ(2022 Remaster)[03:38]
10. 秘めない私(2022 Remaster)[03:49]
11. オンナは変わる(2022 Remaster)[04:15]
12. サリーマリー(2022 Remaster)[05:16]
13. シリアルシンガー(2022 Remaster)[03:57]
14. はしゃぎすぎた街の中で僕は一人遠回りした(2022 Remaster)[03:48]
15. crying march(2022 Remaster)[03:22]
16. 戦ってしまうよ(2022 Remaster)[03:06]
17. キラーボール(2022 Remaster)[04:49]
18. パラレルスペック(2022 Remaster)[05:17]
19. 猟奇的なキスを私にして(2022 Remaster)[03:55]
20. ルミリー(2022 Remaster)[04:11]
21. だけど僕は(2022 Remaster)[03:05]
22. ユレルカレル(2022 Remaster)[04:40]
23. アオミ(2022 Remaster)[05:16]
24. 人生の針(2022 Remaster)[04:07]
25. スレッドダンス(2022 Remaster)[05:24]
26. ノーマルアタマ(2022 Remaster)[03:59]
27. 星降る夜に花束を(2022 Remaster)[03:13]
28. 無垢な季節(2022 Remaster)[03:29]
29. 煙る(2022 Remaster)[03:41]
30. momoe(2022 Remaster)[05:13]
31. もう切ないとは言わせない(2022 Remaster)[04:34]
32. ラスカ(Remix by Fragment&maeshima soshi)[03:11]
33. キラーボール(Remix by HVNS)[03:44]
34. ぶらっくパレード(Remix by AmPm)[2022 Remaster][04:15]
35. 猟奇的なキスを私にして(Remix by PARKGOLF)[02:56]
36. ロマンスがありあまる(Remix by mabanua)[2022 Remaster][03:49]
37. オトナチック(Remix by Amunoa)[04:29]
38. O.I.A(Remix by ちゃんMARI)[03:17]
39. シリアルシンガー(2017 Remix by Avec Avec)[04:31]
40. 両成敗でいいじゃない(Remix by STUTS)[04:32]
41. 私以外私じゃないの(Remix by PARKGOLF)[2022 Remaster][04:15]
Лог Dynamic Range Meter

Код:

oobar2000 1.6.2 / Замер динамического диапазона (DR) 1.1.1
Дата отчёта:    2022-05-13 14:58:50

--------------------------------------------------------------------------------
Анализ:   ゲスの極み乙女。 / ベストアルバム「丸」
--------------------------------------------------------------------------------

DR         Пики         RMS           Продолжительность трека
--------------------------------------------------------------------------------
DR5        0.00 дБ    -6.20 дБ      3:28 01/41-青い裸
DR5       -0.05 дБ    -6.83 дБ      1:59 02/41-発生中
DR5       -0.15 дБ    -7.06 дБ      3:43 03/41-ロマンスがありあまる (2022 Remaster)
DR5       -0.15 дБ    -7.91 дБ      4:26 04/41-オトナチック (2022 Remaster)
DR6       -0.15 дБ    -8.17 дБ      3:51 05/41-私以外私じゃないの (2022 Remaster)
DR5       -0.15 дБ    -7.75 дБ      3:50 06/41-両成敗でいいじゃない (2022 Remaster)
DR4       -0.15 дБ    -6.57 дБ      3:23 07/41-サイデンティティ (2022 Remaster)
DR5       -0.15 дБ    -7.29 дБ      3:59 08/41-ラスカ (2022 Remaster)
DR6       -0.15 дБ    -7.27 дБ      3:37 09/41-デジタルモグラ (2022 Remaster)
DR6       -0.15 дБ    -8.31 дБ      3:49 10/41-秘めない私 (2022 Remaster)
DR6       -0.15 дБ    -8.03 дБ      4:14 11/41-オンナは変わる (2022 Remaster)
DR6       -0.15 дБ    -8.54 дБ      5:15 12/41-サリーマリー (2022 Remaster)
DR7       -0.15 дБ    -9.05 дБ      3:56 13/41-シリアルシンガー (2022 Remaster)
DR4       -0.15 дБ    -6.45 дБ      3:47 14/41-はしゃぎすぎた街の中で僕は一人遠回りした (2022 Remaster)
DR5       -0.15 дБ    -5.84 дБ      3:21 15/41-crying march (2022 Remaster)
DR4       -0.15 дБ    -5.93 дБ      3:05 16/41-戦ってしまうよ (2022 Remaster)
DR5       -0.15 дБ    -7.03 дБ      4:49 17/41-キラーボール (2022 Remaster)
DR5       -0.15 дБ    -6.65 дБ      5:17 18/41-パラレルスペック (2022 Remaster)
DR4       -0.15 дБ    -7.15 дБ      3:55 19/41-猟奇的なキスを私にして (2022 Remaster)
DR5       -0.15 дБ    -7.53 дБ      4:10 20/41-ルミリー (2022 Remaster)
DR5       -0.15 дБ    -6.26 дБ      3:04 21/41-だけど僕は (2022 Remaster)
DR6       -0.15 дБ    -7.90 дБ      4:39 22/41-ユレルカレル (2022 Remaster)
DR6       -0.15 дБ    -8.61 дБ      5:15 23/41-アオミ (2022 Remaster)
DR5       -0.13 дБ    -7.43 дБ      4:06 24/41-人生の針 (2022 Remaster)
DR6       -0.15 дБ    -8.69 дБ      5:24 25/41-スレッドダンス (2022 Remaster)
DR6       -0.15 дБ    -8.01 дБ      3:58 26/41-ノーマルアタマ (2022 Remaster)
DR5       -0.15 дБ    -6.30 дБ      3:13 27/41-星降る夜に花束を (2022 Remaster)
DR4       -0.15 дБ    -6.24 дБ      3:29 28/41-無垢な季節 (2022 Remaster)
DR5       -0.15 дБ    -6.99 дБ      3:40 29/41-煙る (2022 Remaster)
DR7       -0.15 дБ    -8.92 дБ      5:13 30/41-momoe (2022 Remaster)
DR5       -0.15 дБ    -7.71 дБ      4:33 31/41-もう切ないとは言わせない (2022 Remaster)
DR7       -0.15 дБ    -9.15 дБ      3:10 32/41-ラスカ(Remix by Fragment&maeshima soshi)
DR5       -0.15 дБ    -5.61 дБ      3:44 33/41-キラーボール(Remix by HVNS)
DR6       -0.15 дБ    -7.84 дБ      4:14 34/41-ぶらっくパレード(Remix by by AmPm) [2022 Remaster]
DR6       -0.15 дБ    -8.31 дБ      2:55 35/41-猟奇的なキスを私にして(Remix by PARKGOLF)
DR6       -0.15 дБ    -8.25 дБ      3:49 36/41-ロマンスがありあまる(Remix by mabanua) [2022 Remaster]
DR5       -0.15 дБ    -6.09 дБ      4:28 37/41-オトナチック(Remix by Amunoa)
DR6       -0.15 дБ    -8.27 дБ      3:16 38/41-O.I.A(Remix by ちゃん MARI)
DR4       -0.15 дБ    -5.77 дБ      4:30 39/41-シリアルシンガー(2017 Remix by Avec Avec)
DR6       -0.15 дБ    -7.19 дБ      4:32 40/41-両成敗でいいじゃない(Remix by STUTS)
DR5       -0.15 дБ    -8.30 дБ      4:14 41/41-私以外私じゃないの(Remix by PARKGOLF) [2022 Remaster]
--------------------------------------------------------------------------------

Количество треков:  41
Реальные значения DR:  DR5

Частота:      48000 Гц
Каналов:      2
Разрядность:     24
Битрейт:      1785 кбит/с
Кодек:      FLAC
================================================================================
Album trailer

Gesu no Kiwami Otome - Best Album Maru (2022.05.11) (24-48) (FLAC).torrent
Трекер: Зарегистрирован

magnet ссылка

 


Скачать .torrent

14 KB

Статус: проверено (by Myster_Ya в 13-Май-22 15:17)
Зарегистрирован: 13-Май-22 15:16
Скачан: 0 раз
Размер: 2.03 GB | 
Поблагодарили:
Скачать (JPop) Gesu no Kiwami Otome - Best Album Maru - 2022, [TR24] [OF] [FLAC, tracks, lossless] торрент
 


Похожие раздачи

Текущее время: 03-Июл 11:46

Часовой пояс: GMT + 3



Вы не можете начинать темы
Вы не можете отвечать на сообщения
Вы не можете редактировать свои сообщения
Вы не можете удалять свои сообщения
Вы не можете голосовать в опросах
Вы не можете прикреплять файлы к сообщениям
Вы не можете скачивать файлы