Loading...
Error
 

Скачать торрент (JPop) Hikaru Utada - Live Sessions from Air Studios - 2022, [TR24] [OF] [FLAC, tracks, lossless]

 
Автор Сообщение

Myster_Ya

post 21-Июн-22 03:47

Hikaru Utada - Live Sessions from Air Studios

pic
Формат записи/Источник записи: [TR24][OF]
Наличие водяных знаков: Нет
Год издания: 2022.06.09
Жанр: JPop
Издатель (лейбл): Sony Music Labels Inc.
Catalog number: ESXX02646B00Z
Продолжительность: 00:52:49
Контейнер: FLAC (*.flac)
Тип рипа: tracks
Разрядность: 24bit/96kHz
Формат: PCM
Количество каналов: 2.0
Источник (релизер) : ototoy.jp
Наличие сканов в содержимом раздачи: Нет
Треклист:
01. BADモード (Live Version) [05:04]
02. One Last Kiss (Live Version) [04:06]
03. 君に夢中 (Live Version) [04:17]
04. 誰にも言わない (Live Version) [04:43]
05. Find Love (Live Version) [04:39]
06. Time (Live Version) [04:58]
07. PINK BLOOD (Live Version) [03:20]
08. Face My Fears (English Version) (Live Version) [03:47]
09. Hotel Lobby (Live Version) [04:24]
10. Beautiful World (Da Capo Version) (Live Version) [05:45]
11. About Me (Live Version) [04:11]
12. Face My Fears (Japanese Version) (Live Version) [03:42]
Лог Dynamic Range Meter

Код:

foobar2000 1.6.2 / Замер динамического диапазона (DR) 1.1.1
Дата отчёта:    2022-06-21 03:37:10

--------------------------------------------------------------------------------
Анализ:   宇多田ヒカル / Hikaru Utada Live Sessions from Air Studios
--------------------------------------------------------------------------------

DR         Пики         RMS           Продолжительность трека
--------------------------------------------------------------------------------
DR7        0.00 дБ    -8.31 дБ      5:04 01-BADモード (Live Version)
DR7        0.00 дБ    -8.62 дБ      4:06 02-One Last Kiss (Live Version)
DR6       -0.01 дБ    -8.38 дБ      4:17 03-君に夢中 (Live Version)
DR7        0.00 дБ    -8.66 дБ      4:43 04-誰にも言わない (Live Version)
DR6        0.00 дБ    -8.31 дБ      4:39 05-Find Love (Live Version)
DR7        0.00 дБ    -9.20 дБ      4:58 06-Time (Live Version)
DR7        0.00 дБ    -8.51 дБ      3:20 07-PINK BLOOD (Live Version)
DR6        0.00 дБ    -8.81 дБ      3:47 08-Face My Fears (English Version) (Live Version)
DR7       -0.02 дБ    -7.76 дБ      4:24 09-Hotel Lobby (Live Version)
DR7        0.00 дБ   -10.29 дБ      5:45 10-Beautiful World (Da Capo Version) (Live Version)
DR6        0.00 дБ    -8.61 дБ      4:11 11-About Me (Live Version)
DR8        0.00 дБ   -10.75 дБ      3:42 12-Face My Fears (Japanese Version) (Live Version)
--------------------------------------------------------------------------------

Количество треков:  12
Реальные значения DR:  DR7

Частота:      96000 Гц
Каналов:      2
Разрядность:     24
Битрейт:      2629 кбит/с
Кодек:      FLAC
================================================================================
Hikaru Utada Live Sessions from Air Studios (1080-Full)

Hikaru Utada - Live Sessions from Air Studios (24-96) (FLAC).torrent
Трекер: Зарегистрирован

magnet ссылка

 


Скачать .torrent

11 KB

Статус: проверено (by Myster_Ya в 21-Июн-22 03:50)
Зарегистрирован: 21-Июн-22 03:47
Скачан: 2 раза
Размер: 1.04 GB | 
Поблагодарили:
Скачать (JPop) Hikaru Utada - Live Sessions from Air Studios - 2022, [TR24] [OF] [FLAC, tracks, lossless] торрент
 


Похожие раздачи

Текущее время: 03-Июл 11:21

Часовой пояс: GMT + 3



Вы не можете начинать темы
Вы не можете отвечать на сообщения
Вы не можете редактировать свои сообщения
Вы не можете удалять свои сообщения
Вы не можете голосовать в опросах
Вы не можете прикреплять файлы к сообщениям
Вы не можете скачивать файлы