Loading...
Error
 

Скачать торрент (Heavy Metal) The Ferrymen - One More River To Cross - 2022 [FLAC, image +.cue, lossless]

 
Автор Сообщение

trygg

post 14-Июл-22 18:25


The Ferrymen - One More River To Cross


pic
Год издания: 2022
Страна: International pic
Жанр: Heavy Metal
Продолжительность: 01:00:36
Лейбл издания: Avalon
Страна-выпуска диска: Japan pic
Номер по каталогу: MICP-11673
Формат: FLAC
Битрейт аудио: Lossless
Тип рипа: image +.cue
Наличие сканов в содержимом раздачи: да

pic
Трэклист
pic
01. One Word (4:59)
02. The Last Wave (4:48)
03. Shut It Out (5:26)
04. City Of Hate (5:08)
05. One More River To Cross (6:18)
06. Morning Star (6:41)
07. Hunt Me To The End Of The World (4:55)
08. Bringers Of The Dark (5:34)
09. The Other Side (4:22)
10. The Last Ship (4:09)
11. The Passenger (4:17)
12. The Last Wave (Acoustic Version) (4:05)

pic
Лог создания рипа

Код:

Exact Audio Copy V1.6 from 23. October 2020

EAC extraction logfile from 6. February 2022, 8:05

The Ferrymen / One More River To Cross (MICP-11673)

Used drive  : ASUS    BW-16D1HT   Adapter: 1  ID: 0

Read mode               : Secure
Utilize accurate stream : Yes
Defeat audio cache      : Yes
Make use of C2 pointers : No

Read offset correction                      : 6
Overread into Lead-In and Lead-Out          : No
Fill up missing offset samples with silence : Yes
Delete leading and trailing silent blocks   : No
Null samples used in CRC calculations       : Yes
Used interface                              : Native Win32 interface for Win NT & 2000

Used output format              : User Defined Encoder
Selected bitrate                : 1024 kBit/s
Quality                         : High
Add ID3 tag                     : No
Command line compressor         : C:\Program Files (x86)\Exact Audio Copy\Flac\flac.exe
Additional command line options : -6 -V -T "ARTIST=%artist%" -T "TITLE=%title%" -T "ALBUM=%albumtitle%" -T "DATE=%year%" -T "TRACKNUMBER=%tracknr%" -T "GENRE=%genre%" -T "COMMENT=%comment%" -T "BAND=%albuminterpret%" -T "ALBUMARTIST=%albuminterpret%" -T "COMPOSER=%composer%" %haslyrics%--tag-from-file=LYRICS="%lyricsfile%"%haslyrics% -T "DISCNUMBER=%cdnumber%" -T "TOTALDISCS=%totalcds%" -T "TOTALTRACKS=%numtracks%" %hascover%--picture="%coverfile%"%hascover% %source% -o %dest%

TOC of the extracted CD

     Track |   Start  |  Length  | Start sector | End sector
    ---------------------------------------------------------
        1  |  0:00.00 |  4:58.24 |         0    |    22373   
        2  |  4:58.24 |  4:47.40 |     22374    |    43938   
        3  |  9:45.64 |  5:25.18 |     43939    |    68331   
        4  | 15:11.07 |  5:07.26 |     68332    |    91382   
        5  | 20:18.33 |  6:17.61 |     91383    |   119718   
        6  | 26:36.19 |  6:39.71 |    119719    |   149714   
        7  | 33:16.15 |  4:54.08 |    149715    |   171772   
        8  | 38:10.23 |  5:33.60 |    171773    |   196807   
        9  | 43:44.08 |  4:21.50 |    196808    |   216432   
       10  | 48:05.58 |  4:08.03 |    216433    |   235035   
       11  | 52:13.61 |  4:18.35 |    235036    |   254420   
       12  | 56:32.21 |  4:04.57 |    254421    |   272777   

Range status and errors

Selected range

     Filename D:\MUSIC\The Ferrymen - One More River To Cross (MICP-11673).wav

     Peak level 98.8 %
     Extraction speed 7.6 X
     Range quality 99.9 %
     Test CRC 97849EB5
     Copy CRC 97849EB5
     Copy OK

No errors occurred

 
AccurateRip summary
 
Track  1  not present in database
Track  2  not present in database
Track  3  not present in database
Track  4  not present in database
Track  5  not present in database
Track  6  not present in database
Track  7  not present in database
Track  8  not present in database
Track  9  not present in database
Track 10  not present in database
Track 11  not present in database
Track 12  not present in database
 
None of the tracks are present in the AccurateRip database

End of status report
Индексная карта (non-compilant .cue)

Код:

REM GENRE "Heavy Metal"
REM DATE 2022
REM DISCID B40E350C
REM COMMENT "ExactAudioCopy v1.6"
PERFORMER "The Ferrymen"
TITLE "One More River To Cross (MICP-11673)"
REM COMPOSER ""
FILE "The Ferrymen - One More River To Cross (MICP-11673).flac" WAVE
  TRACK 01 AUDIO
    TITLE "One Word"
    PERFORMER "The Ferrymen"
    REM COMPOSER ""
    INDEX 01 00:00:00
  TRACK 02 AUDIO
    TITLE "The Last Wave"
    PERFORMER "The Ferrymen"
    REM COMPOSER ""
    INDEX 01 04:58:24
  TRACK 03 AUDIO
    TITLE "Shut It Out"
    PERFORMER "The Ferrymen"
    REM COMPOSER ""
    INDEX 01 09:45:64
  TRACK 04 AUDIO
    TITLE "City Of Hate"
    PERFORMER "The Ferrymen"
    REM COMPOSER ""
    INDEX 01 15:11:07
  TRACK 05 AUDIO
    TITLE "One More River To Cross"
    PERFORMER "The Ferrymen"
    REM COMPOSER ""
    INDEX 01 20:18:33
  TRACK 06 AUDIO
    TITLE "Morning Star"
    PERFORMER "The Ferrymen"
    REM COMPOSER ""
    INDEX 01 26:36:19
  TRACK 07 AUDIO
    TITLE "Hunt Me To The End Of The World"
    PERFORMER "The Ferrymen"
    REM COMPOSER ""
    INDEX 01 33:16:15
  TRACK 08 AUDIO
    TITLE "Bringers Of The Dark"
    PERFORMER "The Ferrymen"
    REM COMPOSER ""
    INDEX 01 38:10:23
  TRACK 09 AUDIO
    TITLE "The Other Side"
    PERFORMER "The Ferrymen"
    REM COMPOSER ""
    INDEX 01 43:44:08
  TRACK 10 AUDIO
    TITLE "The Last Ship"
    PERFORMER "The Ferrymen"
    REM COMPOSER ""
    INDEX 01 48:05:58
  TRACK 11 AUDIO
    TITLE "The Passenger"
    PERFORMER "The Ferrymen"
    REM COMPOSER ""
    INDEX 01 52:13:61
  TRACK 12 AUDIO
    TITLE "The Last Wave (Acoustic Version)"
    PERFORMER "The Ferrymen"
    REM COMPOSER ""
    INDEX 00 56:30:21
    INDEX 01 56:32:21

pic
для ознакомления:


pic
pic

The Ferrymen - One More River To Cross (Avalon, MICP-11673, Japan) - 2022 FLAC.torrent
Трекер: Зарегистрирован

magnet ссылка

 


Скачать .torrent

19 KB

Статус: проверено (by Myster_Ya в 14-Июл-22 18:50)
Зарегистрирован: 14-Июл-22 18:25
Скачан: 3 раза
Размер: 445 MB | 
Поблагодарили:
Скачать (Heavy Metal) The Ferrymen - One More River To Cross - 2022 [FLAC, image +.cue, lossless] торрент
 


Похожие раздачи

Текущее время: 08-Авг 04:19

Часовой пояс: GMT + 3



Вы не можете начинать темы
Вы не можете отвечать на сообщения
Вы не можете редактировать свои сообщения
Вы не можете удалять свои сообщения
Вы не можете голосовать в опросах
Вы не можете прикреплять файлы к сообщениям
Вы не можете скачивать файлы