Loading...
Error
 

Скачать торрент (Alternative Rock) Muse - Will Of The People - 2022, FLAC (tracks), lossless

 
Автор Сообщение

ichigo11

post 27-Авг-22 00:30

pic
Muse / Will Of The People

Год выпуска: 2022
Жанр: Alternative Rock
Продолжительность: 00:37:42
Тип рипа: tracks
Кодек: FLAC (*.flac)
Разрядность: 16-Bit / 44.1 kHz
Треклист:
01 - Will Of The People [00:03:18]
02 - Compliance [00:04:10]
03 - Liberation [00:03:09]
04 - Won_t Stand Down [00:03:29]
05 - Ghosts (How Can I Move On) [00:03:37]
06 - You Make Me Feel Like It_s Halloween [00:03:00]
07 - Kill Or Be Killed [00:04:59]
08 - Verona [00:04:58]
09 - Euphoria [00:03:20]
10 - We Are Fucking Fucked [00:03:36]
auCDtect Task Manager

Код:

-----------------------

DON'T MODIFY THIS FILE

-----------------------

PERFORMER: auCDtect Task Manager, ver. 1.6.0 RC1 build 1.6.0.1
Copyright (c) 2008-2010 y-soft. All rights reserved
http://y-soft.org

ANALYZER: auCDtect: CD records authenticity detector, version 0.8.2
Copyright (c) 2004 Oleg Berngardt. All rights reserved.
Copyright (c) 2004 Alexander Djourik. All rights reserved.

FILE: 10. We Are Fucking Fucked.flac
  Size: 32423176 Hash: 08EA5642AA82F5ACE7A27B376F710D55 Accuracy: -m0
  Conclusion: CDDA 100%
  Signature: FBC98943F2C811712B495910592DF75E6FE1C212
FILE: 09. Euphoria.flac
  Size: 29266631 Hash: 0728BDFBC140F1F33B345AE7A65BDBC1 Accuracy: -m0
  Conclusion: CDDA 100%
  Signature: 05C228DFD8B81BD7440C5709371DBAFD7540F9F6
FILE: 08. Verona.flac
  Size: 38266112 Hash: F20629D6943E6134BDE01681D9AA8731 Accuracy: -m0
  Conclusion: CDDA 100%
  Signature: 3FFC2182DC93DBAA2524FD1EAE39561AD6FE0277
FILE: 07. Kill Or Be Killed.flac
  Size: 41177378 Hash: 57B2259A26C7BE980BD818D3209DCEF1 Accuracy: -m0
  Conclusion: CDDA 99%
  Signature: FF7774094E05915BE109621C6F3952B62000A46F
FILE: 06. You Make Me Feel Like It’s Halloween.flac
  Size: 26384092 Hash: 9237E146D9DCB55CDE438B123919F4C0 Accuracy: -m0
  Conclusion: CDDA 100%
  Signature: F70FF0F011CD1A5D8E04807E7DFD346FD6B1A162
FILE: 05. Ghosts (How Can I Move On).flac
  Size: 24019348 Hash: 805E02FD8A59E65B89E20FEE31D91932 Accuracy: -m0
  Conclusion: CDDA 100%
  Signature: 525FDF255F8577923A3204A4E4EDD037C98F4B16
FILE: 04. Won’t Stand Down.flac
  Size: 29779987 Hash: 946DD7ADB9E94BD81C2701841E36BCB5 Accuracy: -m0
  Conclusion: MPEG 98%
  Signature: 6D715495801BE17CD950DC877CCBDADEAA9DC992
FILE: 03. Liberation.flac
  Size: 22602611 Hash: 84AAA9F56CAF56E5E3ED6C0604873472 Accuracy: -m0
  Conclusion: CDDA 100%
  Signature: F5E9ED8A32EE944A3A26C6AA326FD4B21CE33E11
FILE: 02. Compliance.flac
  Size: 34375338 Hash: B42B4E3D5ECAFBA0ABCC6A57BEC55AA0 Accuracy: -m0
  Conclusion: CDDA 100%
  Signature: C027759CAE6F8DB52A1C69B91EE43289D5645AA1
FILE: 01. Will Of The People.flac
  Size: 28655026 Hash: E19BA1B36B9E2A4B9D413CCD105EE554 Accuracy: -m0
  Conclusion: CDDA 100%
  Signature: 72F817A9AD64B16339065950131A90688B01CCE6
Замер динамического диапазона (DR)

Код:

foobar2000 1.6.2 / Замер динамического диапазона (DR) 1.1.1
Дата отчёта:  2022-08-26 17:30:30

--------------------------------------------------------------------------------
Анализ:   Muse / Will Of The People
--------------------------------------------------------------------------------

DR         Пики         RMS           Продолжительность трека
--------------------------------------------------------------------------------
DR4        0.00 дБ    -5.21 дБ      3:19 01-Will Of The People
DR5        0.00 дБ    -6.40 дБ      4:11 02-Compliance
DR4        0.00 дБ    -7.83 дБ      3:07 03-Liberation
DR5        0.00 дБ    -6.06 дБ      3:29 04-Won’t Stand Down
DR6        0.00 дБ    -9.29 дБ      3:37 05-Ghosts (How Can I Move On)
DR4        0.00 дБ    -5.29 дБ      3:00 06-You Make Me Feel Like It’s Halloween
DR3        0.00 дБ    -4.31 дБ      4:59 07-Kill Or Be Killed
DR4        0.00 дБ    -6.39 дБ      4:58 08-Verona
DR4        0.00 дБ    -5.40 дБ      3:23 09-Euphoria
DR4        0.00 дБ    -4.58 дБ      3:37 10-We Are Fucking Fucked
--------------------------------------------------------------------------------

Количество треков: 10
Реальные значения DR: DR4

Частота:   44100 Гц
Каналов:   2
Разрядность:   16
Битрейт:   1134 кбит/с
Кодек:   FLAC
================================================================================
Mediainfo:
Format : FLAC
Format/Info : Free Lossless Audio Codec
File size : 27.3 MiB
Duration : 3 min 18 s
Overall bit rate mode : Variable
Overall bit rate : 1 153 kb/s
Album : Will Of The People
Album/Performer : Muse
Track name : Will Of The People
Track name/Position : 01
Performer : Muse
Composer : Matthew Bellamy
Label : Warner Records
Genre : Alternative Rock
Recorded date : 2022
Copyright : © 2022 Muse Under exclusive licence to Warner Music UK Limited, ℗ 2022 Muse
Cover : Yes
Cover type : Cover (front)
Cover MIME : image/jpeg
Comment : Country: United Kingdom
LENGTH : 198000
ARTISTS : Muse
BARCODE : 190296182945

Audio
Format : FLAC
Format/Info : Free Lossless Audio Codec
Duration : 3 min 18 s
Bit rate mode : Variable
Bit rate : 1 084 kb/s
Channel(s) : 2 channels
Channel layout : L R
Sampling rate : 44.1 kHz
Bit depth : 16 bits
Compression mode : Lossless
Stream size : 25.7 MiB (94%)
Writing library : libFLAC 1.3.1 (UTC 2014-11-25)

General
Complete name : C:\Users\VayperSki001\Downloads\Muse (2022) Will Of The People (16bit-44.1kHz)\02. Compliance.flac
Format : FLAC
Format/Info : Free Lossless Audio Codec
File size : 32.8 MiB
Duration : 4 min 10 s
Overall bit rate mode : Variable
Overall bit rate : 1 096 kb/s
Album : Will Of The People
Album/Performer : Muse
Track name : Compliance
Track name/Position : 02
Performer : Muse
Composer : Matthew Bellamy
Label : Warner Records
Genre : Alternative Rock
Recorded date : 2022
Copyright : © 2022 Muse Under exclusive licence to Warner Music UK Limited, ℗ 2022 Muse
Cover : Yes
Cover type : Cover (front)
Cover MIME : image/jpeg
Comment : https://www.facebook.com/muse
LENGTH : 250000
ARTISTS : Muse
BARCODE : 190296182945

Audio
Format : FLAC
Format/Info : Free Lossless Audio Codec
Duration : 4 min 10 s
Bit rate mode : Variable
Bit rate : 1 042 kb/s
Channel(s) : 2 channels
Channel layout : L R
Sampling rate : 44.1 kHz
Bit depth : 16 bits
Compression mode : Lossless
Stream size : 31.2 MiB (95%)
Writing library : libFLAC 1.3.1 (UTC 2014-11-25)

General
Complete name : C:\Users\VayperSki001\Downloads\Muse (2022) Will Of The People (16bit-44.1kHz)\03. Liberation.flac
Format : FLAC
Format/Info : Free Lossless Audio Codec
File size : 21.6 MiB
Duration : 3 min 6 s
Overall bit rate mode : Variable
Overall bit rate : 968 kb/s
Album : Will Of The People
Album/Performer : Muse
Track name : Liberation
Track name/Position : 03
Performer : Muse
Composer : Matthew Bellamy
Label : Warner Records
Genre : Alternative Rock
Recorded date : 2022
Copyright : © 2022 Muse Under exclusive licence to Warner Music UK Limited, ℗ 2022 Muse
Cover : Yes
Cover type : Cover (front)
Cover MIME : image/jpeg
Comment : https://www.muse.mu/
LENGTH : 186000
ARTISTS : Muse
BARCODE : 190296182945

Audio
Format : FLAC
Format/Info : Free Lossless Audio Codec
Duration : 3 min 6 s
Bit rate mode : Variable
Bit rate : 895 kb/s
Channel(s) : 2 channels
Channel layout : L R
Sampling rate : 44.1 kHz
Bit depth : 16 bits
Compression mode : Lossless
Stream size : 19.9 MiB (92%)
Writing library : libFLAC 1.3.1 (UTC 2014-11-25)

General
Complete name : C:\Users\VayperSki001\Downloads\Muse (2022) Will Of The People (16bit-44.1kHz)\04. Won’t Stand Down.flac
Format : FLAC
Format/Info : Free Lossless Audio Codec
File size : 28.4 MiB
Duration : 3 min 29 s
Overall bit rate mode : Variable
Overall bit rate : 1 140 kb/s
Album : Will Of The People
Album/Performer : Muse
Track name : Won’t Stand Down
Track name/Position : 04
Performer : Muse
Composer : Matt Bellamy
Label : Warner Records
Genre : Alternative Rock
Recorded date : 2022
Copyright : © 2022 Muse Under exclusive licence to Warner Music UK Limited, ℗ 2022 Muse
Cover : Yes
Cover type : Cover (front)
Cover MIME : image/jpeg
LENGTH : 209000
ARTISTS : Muse
BARCODE : 190296182945

Audio
Format : FLAC
Format/Info : Free Lossless Audio Codec
Duration : 3 min 29 s
Bit rate mode : Variable
Bit rate : 1 074 kb/s
Channel(s) : 2 channels
Channel layout : L R
Sampling rate : 44.1 kHz
Bit depth : 16 bits
Compression mode : Lossless
Stream size : 26.8 MiB (94%)
Writing library : libFLAC 1.3.1 (UTC 2014-11-25)

General
Complete name : C:\Users\VayperSki001\Downloads\Muse (2022) Will Of The People (16bit-44.1kHz)\05. Ghosts (How Can I Move On).flac
Format : FLAC
Format/Info : Free Lossless Audio Codec
File size : 22.9 MiB
Duration : 3 min 37 s
Overall bit rate mode : Variable
Overall bit rate : 885 kb/s
Album : Will Of The People
Album/Performer : Muse
Track name : Ghosts (How Can I Move On)
Track name/Position : 05
Performer : Muse
Composer : Matthew Bellamy
Label : Warner Records
Genre : Alternative Rock
Recorded date : 2022
Copyright : © 2022 Muse Under exclusive licence to Warner Music UK Limited, ℗ 2022 Muse
Cover : Yes
Cover type : Cover (front)
Cover MIME : image/jpeg
LENGTH : 217000
ARTISTS : Muse
BARCODE : 190296182945

Audio
Format : FLAC
Format/Info : Free Lossless Audio Codec
Duration : 3 min 37 s
Bit rate mode : Variable
Bit rate : 823 kb/s
Channel(s) : 2 channels
Channel layout : L R
Sampling rate : 44.1 kHz
Bit depth : 16 bits
Compression mode : Lossless
Stream size : 21.3 MiB (93%)
Writing library : libFLAC 1.3.1 (UTC 2014-11-25)

General
Complete name : C:\Users\VayperSki001\Downloads\Muse (2022) Will Of The People (16bit-44.1kHz)\06. You Make Me Feel Like It’s Halloween.flac
Format : FLAC
Format/Info : Free Lossless Audio Codec
File size : 25.2 MiB
Duration : 3 min 0 s
Overall bit rate mode : Variable
Overall bit rate : 1 171 kb/s
Album : Will Of The People
Album/Performer : Muse
Track name : You Make Me Feel Like It’s Halloween
Track name/Position : 06
Performer : Muse
Composer : Matthew Bellamy
Label : Warner Records
Genre : Alternative Rock
Recorded date : 2022
Copyright : © 2022 Muse Under exclusive licence to Warner Music UK Limited, ℗ 2022 Muse
Cover : Yes
Cover type : Cover (front)
Cover MIME : image/jpeg
LENGTH : 180000
ARTISTS : Muse
BARCODE : 190296182945

Audio
Format : FLAC
Format/Info : Free Lossless Audio Codec
Duration : 3 min 0 s
Bit rate mode : Variable
Bit rate : 1 095 kb/s
Channel(s) : 2 channels
Channel layout : L R
Sampling rate : 44.1 kHz
Bit depth : 16 bits
Compression mode : Lossless
Stream size : 23.5 MiB (94%)
Writing library : libFLAC 1.3.1 (UTC 2014-11-25)

General
Complete name : C:\Users\VayperSki001\Downloads\Muse (2022) Will Of The People (16bit-44.1kHz)\07. Kill Or Be Killed.flac
Format : FLAC
Format/Info : Free Lossless Audio Codec
File size : 39.3 MiB
Duration : 4 min 59 s
Overall bit rate mode : Variable
Overall bit rate : 1 102 kb/s
Album : Will Of The People
Album/Performer : Muse
Track name : Kill Or Be Killed
Track name/Position : 07
Performer : Muse
Composer : Matthew Bellamy
Label : Warner Records
Genre : Alternative Rock
Recorded date : 2022
Copyright : © 2022 Muse Under exclusive licence to Warner Music UK Limited, ℗ 2022 Muse
Cover : Yes
Cover type : Cover (front)
Cover MIME : image/jpeg
LENGTH : 299000
ARTISTS : Muse
BARCODE : 190296182945

Audio
Format : FLAC
Format/Info : Free Lossless Audio Codec
Duration : 4 min 59 s
Bit rate mode : Variable
Bit rate : 1 056 kb/s
Channel(s) : 2 channels
Channel layout : L R
Sampling rate : 44.1 kHz
Bit depth : 16 bits
Compression mode : Lossless
Stream size : 37.6 MiB (96%)
Writing library : libFLAC 1.3.1 (UTC 2014-11-25)

General
Complete name : C:\Users\VayperSki001\Downloads\Muse (2022) Will Of The People (16bit-44.1kHz)\08. Verona.flac
Format : FLAC
Format/Info : Free Lossless Audio Codec
File size : 36.5 MiB
Duration : 4 min 57 s
Overall bit rate mode : Variable
Overall bit rate : 1 027 kb/s
Album : Will Of The People
Album/Performer : Muse
Track name : Verona
Track name/Position : 08
Performer : Muse
Composer : Matthew Bellamy
Label : Warner Records
Genre : Alternative Rock
Recorded date : 2022
Copyright : © 2022 Muse Under exclusive licence to Warner Music UK Limited, ℗ 2022 Muse
Cover : Yes
Cover type : Cover (front)
Cover MIME : image/jpeg
LENGTH : 297000
ARTISTS : Muse
BARCODE : 190296182945

Audio
Format : FLAC
Format/Info : Free Lossless Audio Codec
Duration : 4 min 57 s
Bit rate mode : Variable
Bit rate : 982 kb/s
Channel(s) : 2 channels
Channel layout : L R
Sampling rate : 44.1 kHz
Bit depth : 16 bits
Compression mode : Lossless
Stream size : 34.9 MiB (96%)
Writing library : libFLAC 1.3.1 (UTC 2014-11-25)

General
Complete name : C:\Users\VayperSki001\Downloads\Muse (2022) Will Of The People (16bit-44.1kHz)\09. Euphoria.flac
Format : FLAC
Format/Info : Free Lossless Audio Codec
File size : 27.9 MiB
Duration : 3 min 23 s
Overall bit rate mode : Variable
Overall bit rate : 1 152 kb/s
Album : Will Of The People
Album/Performer : Muse
Track name : Euphoria
Track name/Position : 09
Performer : Muse
Composer : Matthew Bellamy
Label : Warner Records
Genre : Alternative Rock
Recorded date : 2022
Copyright : © 2022 Muse Under exclusive licence to Warner Music UK Limited, ℗ 2022 Muse
Cover : Yes
Cover type : Cover (front)
Cover MIME : image/jpeg
LENGTH : 203000
ARTISTS : Muse
BARCODE : 190296182945

Audio
Format : FLAC
Format/Info : Free Lossless Audio Codec
Duration : 3 min 23 s
Bit rate mode : Variable
Bit rate : 1 085 kb/s
Channel(s) : 2 channels
Channel layout : L R
Sampling rate : 44.1 kHz
Bit depth : 16 bits
Compression mode : Lossless
Stream size : 26.3 MiB (94%)
Writing library : libFLAC 1.3.1 (UTC 2014-11-25)

General
Complete name : C:\Users\VayperSki001\Downloads\Muse (2022) Will Of The People (16bit-44.1kHz)\10. We Are Fucking Fucked.flac
Format : FLAC
Format/Info : Free Lossless Audio Codec
File size : 30.9 MiB
Duration : 3 min 36 s
Overall bit rate mode : Variable
Overall bit rate : 1 197 kb/s
Album : Will Of The People
Album/Performer : Muse
Track name : We Are Fucking Fucked
Track name/Position : 10
Performer : Muse
Composer : Matthew Bellamy
Label : Warner Records
Genre : Alternative Rock
Recorded date : 2022
Copyright : © 2022 Muse Under exclusive licence to Warner Music UK Limited, ℗ 2022 Muse
Cover : Yes
Cover type : Cover (front)
Cover MIME : image/jpeg
LENGTH : 216000
ARTISTS : Muse
BARCODE : 190296182945

Audio
Format : FLAC
Format/Info : Free Lossless Audio Codec
Duration : 3 min 36 s
Bit rate mode : Variable
Bit rate : 1 134 kb/s
Channel(s) : 2 channels
Channel layout : L R
Sampling rate : 44.1 kHz
Bit depth : 16 bits
Compression mode : Lossless
Stream size : 29.3 MiB (95%)
Writing library : libFLAC 1.3.1 (UTC 2014-11-25)

General
Complete name : C:\Users\VayperSki001\Downloads\Muse (2022) Will Of The People (16bit-44.1kHz)\Folder.auCDtect.txt
File size : 4.40 KiB

General
Complete name : C:\Users\VayperSki001\Downloads\Muse (2022) Will Of The People (16bit-44.1kHz)\back.jpg
Format : JPEG
File size : 860 KiB

Image
Format : JPEG
Width : 1 080 pixels
Height : 1 080 pixels
Color space : YUV
Chroma subsampling : 4:4:4
Bit depth : 8 bits
Compression mode : Lossy
Stream size : 860 KiB (100%)
ColorSpace_ICC : RGB

General
Complete name : C:\Users\VayperSki001\Downloads\Muse (2022) Will Of The People (16bit-44.1kHz)\cover.jpg
Format : JPEG
File size : 3.17 MiB

Image
Format : JPEG
Width : 4 000 pixels
Height : 4 000 pixels
Color space : YUV
Chroma subsampling : 4:2:0
Bit depth : 8 bits
Compression mode : Lossy
Stream size : 3.17 MiB (100%)

General
Complete name : C:\Users\VayperSki001\Downloads\Muse (2022) Will Of The People (16bit-44.1kHz)\foo_dr.txt
File size : 1.54 KiB

General
Complete name : C:\Users\VayperSki001\Downloads\Muse (2022) Will Of The People (16bit-44.1kHz)\muse_wotp_bundle.png
Format : PNG
Format/Info : Portable Network Graphic
File size : 2.33 MiB

Image
Format : PNG
Format/Info : Portable Network Graphic
Compression : Deflate
Width : 1 200 pixels
Height : 1 200 pixels
Color space : RGBA
Bit depth : 8 bits
Compression mode : Lossless
Stream size : 2.33 MiB (100%)

Muse (2022) Will Of The People (16bit-44.1kHz).torrent
Трекер: Зарегистрирован

magnet ссылка

 


Скачать .torrent

13 KB

Статус: проверено (by Myster_Ya в 27-Авг-22 00:33)
Зарегистрирован: 27-Авг-22 00:30
Скачан: 26 раз
Размер: 299 MB | 
Поблагодарили:
Скачать (Alternative Rock) Muse - Will Of The People - 2022, FLAC (tracks), lossless торрент
 


Похожие раздачи

ichigo11

post 27-Авг-22 00:30 (спустя 13 секунд)

For information:

Текущее время: 04-Окт 02:46

Часовой пояс: GMT + 3



Вы не можете начинать темы
Вы не можете отвечать на сообщения
Вы не можете редактировать свои сообщения
Вы не можете удалять свои сообщения
Вы не можете голосовать в опросах
Вы не можете прикреплять файлы к сообщениям
Вы не можете скачивать файлы