Loading...
Error
 

Скачать торрент [Counter - Strike 1.6] ALIVE [2010, Action, HD]

 
Автор Сообщение

k1xz0r

post 19-Июн-10 17:49

ALIVE / 2010

pic
Год выпуска: 2010
Страна: Россия
Студия: Не известно
Жанр: Action
Продолжительность: 00:03:58
Перевод Отсутствует.
Автор: Евгуний Mix(eP) Петухов
В ролях: Евгуний Mix(eP) Петухов

Описание:
В сети появился долгожданный мувик "ALIVE", автором и участником которого является Mix(eP). Еще до выхода был выпущен трейлер, и уже тогда мувику прочили победу на ESWC FRAG MOVIE FESTIVAL. На мой взгляд, бессмысленно описывать эту работу, смотрите сами и наслаждайтесь. Единственный минус видео-ролика - это короткая продолжительность. Приятного просмотра!

Качество видео: HD
Формат видео: AVI
Видео кодек: XviD
Аудио кодек: MPEG Audio
Видео: : Xvid 1280x544 40.00fps
Субтитры: нет
Аудио: MPEG Audio Layer 3 44100Hz stereo 256kbps


MediaIfno

General
Complete name : E:\k1x (582-696-859)\Видео\Movies\Counter-Strike 1.6\ALIVE by MiX(eP).avi
Format : AVI
Format/Info : Audio Video Interleave
File size : 257 MiB
Duration : 3mn 58s
Overall bit rate : 9 045 Kbps
Writing library : VirtualDub build 29808/release

Video
ID : 0
Format : MPEG-4 Visual
Format profile : [email protected]
Format settings, BVOP : Yes
Format settings, QPel : No
Format settings, GMC : No warppoints
Format settings, Matrix : Default (H.263)
Muxing mode : Packed bitstream
Codec ID : XVID
Codec ID/Hint : XviD
Duration : 3mn 58s
Bit rate : 8 773 Kbps
Width : 1 280 pixels
Height : 544 pixels
Display aspect ratio : 2.35:1
Frame rate : 40.000 fps
Resolution : 24 bits
Colorimetry : 4:2:0
Scan type : Progressive
Bits/(Pixel*Frame) : 0.315
Stream size : 249 MiB (97%)
Writing library : XviD 1.2.1 (UTC 2008-12-04)

Audio
ID : 1
Format : MPEG Audio
Format version : Version 1
Format profile : Layer 3
Codec ID : 55
Codec ID/Hint : MP3
Duration : 3mn 58s
Bit rate mode : Constant
Bit rate : 256 Kbps
Channel(s) : 2 channels
Sampling rate : 44.1 KHz
Resolution : 16 bits
Stream size : 7.27 MiB (3%)
Alignment : Split accross interleaves
Interleave, duration : 25 ms (1.00 video frame)
Interleave, preload duration : 500 ms
Writing library : LAME3.98.2

Скриншоты
picpicpicpicpicpicpicpic
Скринлист
pic

© Оформление by Kepasa
ALIVE by MiX(eP).torrent
Трекер: Зарегистрирован

magnet ссылка

 


Скачать .torrent

10 KB

Статус: проверено (by .::IGOR::. в 19-Июн-10 18:05)
Зарегистрирован: 19-Июн-10 17:49
Скачан: 75 раз
Размер: 257 MB | 
Поблагодарили:
Скачать [Counter - Strike 1.6] ALIVE [2010, Action, HD] торрент
 


Похожие раздачи

k1xz0r

post 19-Июн-10 17:54 (спустя 4 минуты)


Раздаю 24/7 pic


добавлено спустя 3 минуты:

!!! MUST SEE !!!


ОДИН ИЗ ЛУЧШИХ МУВИКОВ РОССИЙСКОГО МУВИМЕЙКИНГ КОММУНИТИ !!!
СМОТРЕТЬ ВСЕМ !!! РЕКОМАНДУЮ, НЕ ПОЖАЛЕЕТЕ !!!

Asmodiant

post 19-Июн-10 17:58 (спустя 4 минуты)

Мувик классный, но ложил он нубов каких-то по ходу :) .

k1xz0r

post 19-Июн-10 18:06 (спустя 7 минут)

Трейлер к мувику

Trailer
[youtube]http://www.youtube.com/watch?v=Jg2JP9J61ZU[/youtube]
добавлено спустя 43 секунды:

Asmodiant
Ты смарел уже ?
Фраги все рандомные, просто выбраны лучшие моменты ...

lex34rus

post 19-Июн-10 18:10 (спустя 4 минуты)

Cпасибо

Asmodiant

post 19-Июн-10 18:13 (спустя 3 минуты)

Ц Kepasa писал(а):

Asmodiant
Ты смарел уже ?
Фраги все рандомные, просто выбраны лучшие моменты ...
Я на ютубе видел. Моменты фантастические просто выбраны. Там или много мастерства+огромная удача, либо много мастерства и нубы :) .

k1xz0r

post 19-Июн-10 18:23 (спустя 9 минут)

Asmodiant
Там скорее мастерство аля рандом + енеми его уровня. Называть их нубами врятли можно, т.к. всё относительно )

Asmodiant

post 19-Июн-10 18:32 (спустя 8 минут)

Ц Kepasa писал(а):

Asmodiant
Там скорее мастерство аля рандом + енеми его уровня. Называть их нубами врятли можно, т.к. всё относительно )
Ну мейби и так все. Относительно тех ребят меня нубом называть можно я думаю)

OveRdoZA

post 09-Июл-10 18:53 (спустя 20 дней)

неможу найти 1 пысню найшов 3 одноъ ше неможу ныяк найти пыдскажыть якы пысны тут грають ..хто автори пысень може хто знає ??

lex34rus

post 13-Фев-12 04:47 (спустя 1 год 7 месяцев)

OveRdoZA
RTPN - Unnamed =)

Pavell123

post 02-Мар-12 14:40 (спустя 18 дней)

Раскрутка подписчиков и видео в YouTube регистрируйтесь вот ссылка http://ru.pumpyt.com/?r=s1LenT а главное что все БЕСПЛАТНО

Текущее время: 23-Июл 04:59

Часовой пояс: GMT + 3



Вы не можете начинать темы
Вы не можете отвечать на сообщения
Вы не можете редактировать свои сообщения
Вы не можете удалять свои сообщения
Вы не можете голосовать в опросах
Вы не можете прикреплять файлы к сообщениям
Вы не можете скачивать файлы