Loading...
Error
 

Скачать торрент (Punk - Rock) Сектор Газа - Дискография (1989 - 2000), APE (image + .cue), lossless

 
Автор Сообщение

Волжанин

post 19-Июн-10 20:15

Сектор Газа
Дискография


pic
Год выпуска: 1989 - 2000

Жанр: Punk - Rock

Продолжительность: 08:40:00

Тип издания: Albums

Аудиокодек: APE (image + .cue)

Битрейт аудио: Lossless


Треклист:


1989 - Сектор Газа
pic
01. Сектор Газа (03:39)
02. Ангел секса (03:10)
03. Авто мат (03:16)
04. Я мочился в ночь (02:11)
05. Эстрадная песня (01:57)
06. Аборт или роды (02:07)
07. Самогонщики (02:39)
08. Спокойной ночи малыши (03:01)
09. Я - мразь (02:22)
10. Сумасшедший труп (02:05)
11. Подкуп (02:25)
12. Дураки (02:03)
13. Война (03:48)
ЛОГ
Exact Audio Copy V0.99 prebeta 3 from 28. July 2007

Отчёт EAC об извлечении, выполненном 4. декабря 2007, 13:55

Сектор Газа / Сектор Газа

Дисковод: SONY DVD-ROM DDU1621 Adapter: 1 ID: 3

Режим чтения : Достоверность
Использование точного потока : Да
Отключение кэша аудио : Да
Использование указателей C2 : Нет

Коррекция смещения при чтении : 594
Способность читать области Lead-in и Lead-out : Нет
Заполнение пропущенных сэмплов тишиной : Да
Удаление блоков с тишиной в начале и конце : Нет
При вычислениях CRC использовались нулевые сэмплы : Да
Интерфейс : Встроенный Win32-интерфейс для Win NT/2000

Выходной формат : Внутренние WAV-операции
Формат сэмплов : 44.100 Гц; 16 бит; стерео

TOC извлечённого CD

Трек | Старт | Длительность | Начальный сектор | Конечный сектор
---------------------------------------------------------------------
1 | 0:00.00 | 3:39.07 | 0 | 16431
2 | 3:39.07 | 3:10.68 | 16432 | 30749
3 | 6:50.00 | 3:16.64 | 30750 | 45513
4 | 10:06.64 | 2:11.13 | 45514 | 55351
5 | 12:18.02 | 1:57.03 | 55352 | 64129
6 | 14:15.05 | 2:07.07 | 64130 | 73661
7 | 16:22.12 | 2:39.45 | 73662 | 85631
8 | 19:01.57 | 3:01.45 | 85632 | 99251
9 | 22:03.27 | 2:22.73 | 99252 | 109974
10 | 24:26.25 | 2:05.32 | 109975 | 119381
11 | 26:31.57 | 2:25.40 | 119382 | 130296
12 | 28:57.22 | 2:03.73 | 130297 | 139594
13 | 31:01.20 | 3:48.02 | 139595 | 156696

Характеристики диапазона извлечения и сообщения об ошибках

Выбранный диапазон

Имя файла G:\Торрент\Раздача\Сектор Газа\02 Сектор Газа\Сектор Газа - Сектор Газа.wav

Пиковый уровень 100.0 %
Качество диапазона 100.0 %
CRC копии 89ED7030
Копирование... OK

Ошибок не произошло

Конец отчёта
1989 - Колхозный панк
pic
01. Вступление (02:07)
02. Колхозный панк (03:37)
03. Плуги-вуги (03:33)
04. Патриот (03:32)
05. Наркоман (03:37)
06. Банка (04:04)
07. Попец (02:28)
08. Местные (03:04)
09. Утопленник (04:48)
10. Пасха (05:33)
ЛОГ
Exact Audio Copy V0.99 prebeta 3 from 28. July 2007

Отчёт EAC об извлечении, выполненном 4. декабря 2007, 13:30

Сектор Газа / Колхозный панк

Дисковод: SONY DVD-ROM DDU1621 Adapter: 1 ID: 3

Режим чтения : Достоверность
Использование точного потока : Да
Отключение кэша аудио : Да
Использование указателей C2 : Нет

Коррекция смещения при чтении : 594
Способность читать области Lead-in и Lead-out : Нет
Заполнение пропущенных сэмплов тишиной : Да
Удаление блоков с тишиной в начале и конце : Нет
При вычислениях CRC использовались нулевые сэмплы : Да
Интерфейс : Встроенный Win32-интерфейс для Win NT/2000

Выходной формат : Внутренние WAV-операции
Формат сэмплов : 44.100 Гц; 16 бит; стерео

TOC извлечённого CD

Трек | Старт | Длительность | Начальный сектор | Конечный сектор
---------------------------------------------------------------------
1 | 0:00.20 | 2:07.00 | 20 | 9544
2 | 2:07.20 | 3:37.70 | 9545 | 25889
3 | 5:45.15 | 3:33.25 | 25890 | 41889
4 | 9:18.40 | 3:32.35 | 41890 | 57824
5 | 12:51.00 | 3:37.20 | 57825 | 74119
6 | 16:28.20 | 4:04.30 | 74120 | 92449
7 | 20:32.50 | 2:28.20 | 92450 | 103569
8 | 23:00.70 | 3:04.50 | 103570 | 117419
9 | 26:05.45 | 4:48.28 | 117420 | 139047
10 | 30:53.73 | 5:33.65 | 139048 | 164087

Характеристики диапазона извлечения и сообщения об ошибках

Выбранный диапазон

Имя файла G:\Торрент\Раздача\СГ\Сектор Газа - Колхозный панк.wav

Пиковый уровень 100.0 %
Качество диапазона 100.0 %
CRC копии 937C3FB9
Копирование... OK

Ошибок не произошло

Конец отчёта
1990 - Зловещие мертвецы
pic
01. Ой ты травушка зеленая (06:04)
02. Сифон (03:30)
03. Ку - ку (01:45)
04. Русский мат (02:27)
05. Без вина (03:35)
06. Голубой (02:54)
07. Страх (03:04)
08. Нас ждут из темноты (04:00)
09. Вампиры (04:55)
10. Моя смерть (03:56)
11. Когда помрешь (03:38)
12. Черная магия (03:41)
ЛОГ
Exact Audio Copy V0.99 prebeta 3 from 28. July 2007

Отчёт EAC об извлечении, выполненном 4. декабря 2007, 15:37

Сектор Газа / Зловещие мертвецы

Дисковод: SONY DVD-ROM DDU1621 Adapter: 1 ID: 3

Режим чтения : Достоверность
Использование точного потока : Да
Отключение кэша аудио : Да
Использование указателей C2 : Нет

Коррекция смещения при чтении : 594
Способность читать области Lead-in и Lead-out : Нет
Заполнение пропущенных сэмплов тишиной : Да
Удаление блоков с тишиной в начале и конце : Нет
При вычислениях CRC использовались нулевые сэмплы : Да
Интерфейс : Встроенный Win32-интерфейс для Win NT/2000

Выходной формат : Внутренние WAV-операции
Формат сэмплов : 44.100 Гц; 16 бит; стерео

TOC извлечённого CD

Трек | Старт | Длительность | Начальный сектор | Конечный сектор
---------------------------------------------------------------------
1 | 0:00.25 | 6:04.52 | 25 | 27376
2 | 6:05.02 | 3:30.38 | 27377 | 43164
3 | 9:35.40 | 1:45.47 | 43165 | 51086
4 | 11:21.12 | 2:27.35 | 51087 | 62146
5 | 13:48.47 | 3:35.25 | 62147 | 78296
6 | 17:23.72 | 2:54.23 | 78297 | 91369
7 | 20:18.20 | 3:04.47 | 91370 | 105216
8 | 23:22.67 | 4:00.05 | 105217 | 123221
9 | 27:22.72 | 4:55.15 | 123222 | 145361
10 | 32:18.12 | 3:56.28 | 145362 | 163089
11 | 36:14.40 | 3:38.57 | 163090 | 179496
12 | 39:53.22 | 3:41.08 | 179497 | 196079

Характеристики диапазона извлечения и сообщения об ошибках

Выбранный диапазон

Имя файла G:\Торрент\Раздача\Сектор Газа\08 Зловещие мертвецы\Сектор Газа - Зловещие мертвецы.wav

Пиковый уровень 100.0 %
Качество диапазона 100.0 %
CRC копии 5C237F3C
Копирование... OK

Ошибок не произошло

Конец отчёта
1990 - Ядрёна вошь
pic
01. Мы совковые ребята (00:23)
02. Скотник (02:58)
03. Носки (02:46)
04. Импотент (03:34)
05. Ядрена вошь (03:47)
06. Мент (02:25)
07. Колыбельная (02:29)
08. План (03:22)
09. Спор (04:25)
10. Караван (04:35)
11. Пердун (02:41)
12. Вечером на лавочке (04:06)
13. Возле дома твоего (03:05)
14. Минет (03:30)
ЛОГ
Exact Audio Copy V0.99 prebeta 3 from 28. July 2007

Отчёт EAC об извлечении, выполненном 4. декабря 2007, 14:42

Сектор Газа / Ядрёна вошь

Дисковод: SONY DVD-ROM DDU1621 Adapter: 1 ID: 3

Режим чтения : Достоверность
Использование точного потока : Да
Отключение кэша аудио : Да
Использование указателей C2 : Нет

Коррекция смещения при чтении : 594
Способность читать области Lead-in и Lead-out : Нет
Заполнение пропущенных сэмплов тишиной : Да
Удаление блоков с тишиной в начале и конце : Нет
При вычислениях CRC использовались нулевые сэмплы : Да
Интерфейс : Встроенный Win32-интерфейс для Win NT/2000

Выходной формат : Внутренние WAV-операции
Формат сэмплов : 44.100 Гц; 16 бит; стерео

TOC извлечённого CD

Трек | Старт | Длительность | Начальный сектор | Конечный сектор
---------------------------------------------------------------------
1 | 0:00.37 | 0:23.48 | 37 | 1809
2 | 0:24.10 | 2:58.25 | 1810 | 15184
3 | 3:22.35 | 2:46.57 | 15185 | 27691
4 | 6:09.17 | 3:34.48 | 27692 | 43789
5 | 9:43.65 | 3:47.57 | 43790 | 60871
6 | 13:31.47 | 2:25.13 | 60872 | 71759
7 | 15:56.60 | 2:29.12 | 71760 | 82946
8 | 18:25.72 | 3:22.25 | 82947 | 98121
9 | 21:48.22 | 4:25.63 | 98122 | 118059
10 | 26:14.10 | 4:35.50 | 118060 | 138734
11 | 30:49.60 | 2:41.20 | 138735 | 150829
12 | 33:31.05 | 4:06.52 | 150830 | 169331
13 | 37:37.57 | 3:05.43 | 169332 | 183249
14 | 40:43.25 | 3:30.37 | 183250 | 199036

Характеристики диапазона извлечения и сообщения об ошибках

Выбранный диапазон

Имя файла G:\Торрент\Раздача\Сектор Газа\05 Ядрёна вошь\Сектор Газа - Ядрёна вошь.wav

Пиковый уровень 98.6 %
Качество диапазона 100.0 %
CRC копии 4E6979A7
Копирование... OK

Ошибок не произошло

Конец отчёта
1991 - Ночь перед рождеством
pic
01. Привет, ребята.. (02:28)
02. Ява (04:37)
03. Шары (02:38)
04. Давай, давай (03:12)
05. Белая горячка (03:12)
06. Голубь (03:52)
07. Презерватив (02:28)
08. Презерватив-2 (02:32)
09. Щи (03:47)
10. Здравствуйте, детишки (00:45)
11. Снегурочка (03:39)
12. Илья Муромец (02:49)
13. Кума (02:41)
14. Ночь перед Рождеством (04:30)
ЛОГ
Exact Audio Copy V0.99 prebeta 3 from 28. July 2007

Отчёт EAC об извлечении, выполненном 4. декабря 2007, 14:17

Сектор Газа / Ночь перед рождеством

Дисковод: SONY DVD-ROM DDU1621 Adapter: 1 ID: 3

Режим чтения : Достоверность
Использование точного потока : Да
Отключение кэша аудио : Да
Использование указателей C2 : Нет

Коррекция смещения при чтении : 594
Способность читать области Lead-in и Lead-out : Нет
Заполнение пропущенных сэмплов тишиной : Да
Удаление блоков с тишиной в начале и конце : Нет
При вычислениях CRC использовались нулевые сэмплы : Да
Интерфейс : Встроенный Win32-интерфейс для Win NT/2000

Выходной формат : Внутренние WAV-операции
Формат сэмплов : 44.100 Гц; 16 бит; стерео

TOC извлечённого CD

Трек | Старт | Длительность | Начальный сектор | Конечный сектор
---------------------------------------------------------------------
1 | 0:00.00 | 2:28.37 | 0 | 11136
2 | 2:28.37 | 4:37.38 | 11137 | 31949
3 | 7:06.00 | 2:38.05 | 31950 | 43804
4 | 9:44.05 | 3:12.72 | 43805 | 58276
5 | 12:57.02 | 3:12.63 | 58277 | 72739
6 | 16:09.65 | 3:52.27 | 72740 | 90166
7 | 20:02.17 | 2:28.65 | 90167 | 101331
8 | 22:31.07 | 2:32.30 | 101332 | 112761
9 | 25:03.37 | 3:47.10 | 112762 | 129796
10 | 28:50.47 | 0:45.45 | 129797 | 133216
11 | 29:36.17 | 3:39.18 | 133217 | 149659
12 | 33:15.35 | 2:49.47 | 149660 | 162381
13 | 36:05.07 | 2:41.68 | 162382 | 174524
14 | 38:47.00 | 4:30.00 | 174525 | 194774

Характеристики диапазона извлечения и сообщения об ошибках

Выбранный диапазон

Имя файла G:\Торрент\Раздача\Сектор Газа\03 Ночь перед рождеством\Сектор Газа - Ночь перед рождеством.wav

Пиковый уровень 93.6 %
Качество диапазона 100.0 %
CRC копии 441A33FE
Копирование... OK

Ошибок не произошло

Конец отчёта
1992 - Гуляй мужик
pic
01. Гуляй мужик (03:04)
02. Мастурбация (03:39)
03. Видак (03:02)
04. Колхозная (02:54)
05. Я устал (02:30)
06. ЛТП (03:26)
07. Бомж (03:32)
08. Трипак (04:25)
09. Як на хуторе (03:24)
10. Вурдалак (02:39)
11. Моя бабка (02:54)
12. Частушки (05:30)
ЛОГ
Exact Audio Copy V0.99 prebeta 3 from 28. July 2007

Отчёт EAC об извлечении, выполненном 4. декабря 2007, 15:06

Сектор Газа / Гуляй мужик

Дисковод: SONY DVD-ROM DDU1621 Adapter: 1 ID: 3

Режим чтения : Достоверность
Использование точного потока : Да
Отключение кэша аудио : Да
Использование указателей C2 : Нет

Коррекция смещения при чтении : 594
Способность читать области Lead-in и Lead-out : Нет
Заполнение пропущенных сэмплов тишиной : Да
Удаление блоков с тишиной в начале и конце : Нет
При вычислениях CRC использовались нулевые сэмплы : Да
Интерфейс : Встроенный Win32-интерфейс для Win NT/2000

Выходной формат : Внутренние WAV-операции
Формат сэмплов : 44.100 Гц; 16 бит; стерео

TOC извлечённого CD

Трек | Старт | Длительность | Начальный сектор | Конечный сектор
---------------------------------------------------------------------
1 | 0:00.25 | 3:04.55 | 25 | 13879
2 | 3:05.05 | 3:39.62 | 13880 | 30366
3 | 6:44.67 | 3:02.33 | 30367 | 44049
4 | 9:47.25 | 2:54.55 | 44050 | 57154
5 | 12:42.05 | 2:30.10 | 57155 | 68414
6 | 15:12.15 | 3:26.72 | 68415 | 83936
7 | 18:39.12 | 3:32.55 | 83937 | 99891
8 | 22:11.67 | 4:25.13 | 99892 | 119779
9 | 26:37.05 | 3:24.32 | 119780 | 135111
10 | 30:01.37 | 2:39.05 | 135112 | 147041
11 | 32:40.42 | 2:54.70 | 147042 | 160161
12 | 35:35.37 | 5:30.70 | 160162 | 184981

Характеристики диапазона извлечения и сообщения об ошибках

Выбранный диапазон

Имя файла G:\Торрент\Раздача\Сектор Газа\06 Гуляй мужик\Сектор Газа - Гуляй мужик.wav

Пиковый уровень 99.7 %
Качество диапазона 99.9 %
CRC копии 4F03B8F3
Копирование... OK

Ошибок не произошло

Конец отчёта
1993 - Нажми на газ
pic
01. Нажми на газ (01:56)
02. Кабак (03:52)
03. Подвал (03:06)
04. Девушка (03:17)
05. Суд (03:56)
06. Взял вину на себя (03:14)
07. Оборотень (03:34)
08. Мажор (00:50)
09. Лирика (04:20)
10. Дурак (03:22)
11. Теща (03:47)
12. Мумия (04:38)
13. Репетиция (05:07)
ЛОГ
Exact Audio Copy V0.99 prebeta 3 from 28. July 2007

Отчёт EAC об извлечении, выполненном 4. декабря 2007, 15:19

Сектор Газа / Нажми на газ

Дисковод: SONY DVD-ROM DDU1621 Adapter: 1 ID: 3

Режим чтения : Достоверность
Использование точного потока : Да
Отключение кэша аудио : Да
Использование указателей C2 : Нет

Коррекция смещения при чтении : 594
Способность читать области Lead-in и Lead-out : Нет
Заполнение пропущенных сэмплов тишиной : Да
Удаление блоков с тишиной в начале и конце : Нет
При вычислениях CRC использовались нулевые сэмплы : Да
Интерфейс : Встроенный Win32-интерфейс для Win NT/2000

Выходной формат : Внутренние WAV-операции
Формат сэмплов : 44.100 Гц; 16 бит; стерео

TOC извлечённого CD

Трек | Старт | Длительность | Начальный сектор | Конечный сектор
---------------------------------------------------------------------
1 | 0:00.00 | 1:56.05 | 0 | 8704
2 | 1:56.05 | 3:52.25 | 8705 | 26129
3 | 5:48.30 | 3:06.60 | 26130 | 40139
4 | 8:55.15 | 3:17.25 | 40140 | 54939
5 | 12:12.40 | 3:56.67 | 54940 | 72706
6 | 16:09.32 | 3:14.68 | 72707 | 87324
7 | 19:24.25 | 3:34.15 | 87325 | 103389
8 | 22:58.40 | 0:50.17 | 103390 | 107156
9 | 23:48.57 | 4:20.20 | 107157 | 126676
10 | 28:09.02 | 3:22.40 | 126677 | 141866
11 | 31:31.42 | 3:47.60 | 141867 | 158951
12 | 35:19.27 | 4:38.50 | 158952 | 179851
13 | 39:58.02 | 5:07.43 | 179852 | 202919

Характеристики диапазона извлечения и сообщения об ошибках

Выбранный диапазон

Имя файла G:\Торрент\Раздача\Сектор Газа\07 Нажми на газ\Сектор Газа - Нажми на газ.wav

Пиковый уровень 87.6 %
Качество диапазона 100.0 %
CRC копии C72AA056
Копирование... OK

Ошибок не произошло

Конец отчёта
1994 - Танцы после порева
pic
01. Танцы после порева (03:40)
02. Не даёт (02:59)
03. Метаморфоза (02:38)
04. Вдова (02:58)
05. Проститутка (02:22)
06. Комары (03:57)
07. Незнакомые места (03:57)
08. Казачья (02:47)
09. Сельский кайф (02:50)
10. Из чего же (02:29)
11. Богатые тоже плачут (02:10)
12. Укус вампира (04:49)
13. Злая ночь (03:37)
ЛОГ
Exact Audio Copy V0.99 prebeta 3 from 28. July 2007

Отчёт EAC об извлечении, выполненном 4. декабря 2007, 14:30

Сектор Газа / Танцы после порева

Дисковод: SONY DVD-ROM DDU1621 Adapter: 1 ID: 3

Режим чтения : Достоверность
Использование точного потока : Да
Отключение кэша аудио : Да
Использование указателей C2 : Нет

Коррекция смещения при чтении : 594
Способность читать области Lead-in и Lead-out : Нет
Заполнение пропущенных сэмплов тишиной : Да
Удаление блоков с тишиной в начале и конце : Нет
При вычислениях CRC использовались нулевые сэмплы : Да
Интерфейс : Встроенный Win32-интерфейс для Win NT/2000

Выходной формат : Внутренние WAV-операции
Формат сэмплов : 44.100 Гц; 16 бит; стерео

TOC извлечённого CD

Трек | Старт | Длительность | Начальный сектор | Конечный сектор
---------------------------------------------------------------------
1 | 0:00.00 | 3:40.17 | 0 | 16516
2 | 3:40.17 | 2:59.23 | 16517 | 29964
3 | 6:39.40 | 2:38.05 | 29965 | 41819
4 | 9:17.45 | 2:58.30 | 41820 | 55199
5 | 12:16.00 | 2:22.37 | 55200 | 65886
6 | 14:38.37 | 3:57.43 | 65887 | 83704
7 | 18:36.05 | 3:57.10 | 83705 | 101489
8 | 22:33.15 | 2:47.30 | 101490 | 114044
9 | 25:20.45 | 2:50.60 | 114045 | 126854
10 | 28:11.30 | 2:29.70 | 126855 | 138099
11 | 30:41.25 | 2:10.65 | 138100 | 147914
12 | 32:52.15 | 4:49.47 | 147915 | 169636
13 | 37:41.62 | 3:37.47 | 169637 | 185958

Характеристики диапазона извлечения и сообщения об ошибках

Выбранный диапазон

Имя файла G:\Торрент\Раздача\Сектор Газа\04 Гуляй мужик\Сектор Газа - Танцы после порева.wav

Пиковый уровень 92.8 %
Качество диапазона 100.0 %
CRC копии D20A9CC0
Копирование... OK

Ошибок не произошло

Конец отчёта
1994 - Кощей Бессмертный
pic
01. Интро (03:32)
02. Ария Ивана (07:33)
03. Ария Ивана и Лягушки (07:44)
04. Вторая Ария Ивана (04:22)
05. Ария Бабы- Яги (05:39)
06. Ария Графа Дракулы (03:57)
07. Ария Василисы Прекрасной (03:00)
08. Третья Ария Ивана (03:41)
09. Ария Кащея Бессмертного (02:59)
10. Четвертая Ария Ивана (02:31)
ЛОГ
Exact Audio Copy V0.99 prebeta 3 from 28. July 2007

Отчёт EAC об извлечении, выполненном 4. декабря 2007, 16:05

Сектор Газа / Кощей Бессмертный

Дисковод: SONY DVD-ROM DDU1621 Adapter: 1 ID: 3

Режим чтения : Достоверность
Использование точного потока : Да
Отключение кэша аудио : Да
Использование указателей C2 : Нет

Коррекция смещения при чтении : 594
Способность читать области Lead-in и Lead-out : Нет
Заполнение пропущенных сэмплов тишиной : Да
Удаление блоков с тишиной в начале и конце : Нет
При вычислениях CRC использовались нулевые сэмплы : Да
Интерфейс : Встроенный Win32-интерфейс для Win NT/2000

Выходной формат : Внутренние WAV-операции
Формат сэмплов : 44.100 Гц; 16 бит; стерео

TOC извлечённого CD

Трек | Старт | Длительность | Начальный сектор | Конечный сектор
---------------------------------------------------------------------
1 | 0:00.00 | 3:32.37 | 0 | 15936
2 | 3:32.37 | 7:33.15 | 15937 | 49926
3 | 11:05.52 | 7:44.70 | 49927 | 84796
4 | 18:50.47 | 4:22.38 | 84797 | 104484
5 | 23:13.10 | 5:39.25 | 104485 | 129934
6 | 28:52.35 | 3:57.60 | 129935 | 147769
7 | 32:50.20 | 3:00.40 | 147770 | 161309
8 | 35:50.60 | 3:41.02 | 161310 | 177886
9 | 39:31.62 | 2:59.25 | 177887 | 191336
10 | 42:31.12 | 2:31.68 | 191337 | 202729

Характеристики диапазона извлечения и сообщения об ошибках

Выбранный диапазон

Имя файла G:\Торрент\Раздача\Сектор Газа\09 Кощей Бессмертный\Сектор Газа - Кощей Бессмертный.wav

Пиковый уровень 89.5 %
Качество диапазона 99.9 %
CRC копии 24479315
Копирование... OK

Ошибок не произошло

Конец отчёта
1996 - Газовая атака
pic
01. Аванс (03:31)
02. Свидание (04:01)
03. Вылазка (04:24)
04. 30 лет (04:10)
05. Life (03:25)
06. Туман (03:43)
07. Твой звонок (05:06)
08. ГАИ (водительская-подхалимская) (04:07)
09. Мак (04:42)
10. Чунга-чанга (02:52)
11. Хата (03:34)
12. Рассказ, услышанный в автокомбинате (03:54)
13. Опарыш (03:50)
ЛОГ
Exact Audio Copy V0.99 prebeta 3 from 28. July 2007

Отчёт EAC об извлечении, выполненном 4. декабря 2007, 16:34

Сектор Газа / Газовая Атака

Дисковод: SONY DVD-ROM DDU1621 Adapter: 1 ID: 3

Режим чтения : Достоверность
Использование точного потока : Да
Отключение кэша аудио : Да
Использование указателей C2 : Нет

Коррекция смещения при чтении : 594
Способность читать области Lead-in и Lead-out : Нет
Заполнение пропущенных сэмплов тишиной : Да
Удаление блоков с тишиной в начале и конце : Нет
При вычислениях CRC использовались нулевые сэмплы : Да
Интерфейс : Встроенный Win32-интерфейс для Win NT/2000

Выходной формат : Внутренние WAV-операции
Формат сэмплов : 44.100 Гц; 16 бит; стерео

TOC извлечённого CD

Трек | Старт | Длительность | Начальный сектор | Конечный сектор
---------------------------------------------------------------------
1 | 0:00.00 | 3:31.42 | 0 | 15866
2 | 3:31.42 | 4:01.10 | 15867 | 33951
3 | 7:32.52 | 4:24.00 | 33952 | 53751
4 | 11:56.52 | 4:10.15 | 53752 | 72516
5 | 16:06.67 | 3:25.65 | 72517 | 87956
6 | 19:32.57 | 3:43.63 | 87957 | 104744
7 | 23:16.45 | 5:06.40 | 104745 | 127734
8 | 28:23.10 | 4:07.60 | 127735 | 146319
9 | 32:30.70 | 4:42.39 | 146320 | 167508
10 | 37:13.34 | 2:52.33 | 167509 | 180441
11 | 40:05.67 | 3:34.20 | 180442 | 196511
12 | 43:40.12 | 3:54.73 | 196512 | 214134
13 | 47:35.10 | 3:50.65 | 214135 | 231449

Характеристики диапазона извлечения и сообщения об ошибках

Выбранный диапазон

Имя файла G:\Торрент\Раздача\Сектор Газа\10 Газовая атака\Сектор Газа - Газовая Атака.wav

Пиковый уровень 96.9 %
Качество диапазона 100.0 %
CRC копии 9C3F9BC9
Копирование... OK

Ошибок не произошло

Конец отчёта
1997 - Наркологический университет миллионов
pic
01. Опять сегодня (02:22)
02. Кусок (02:23)
03. Новогодняя песня (02:40)
04. Песенка (03:19)
05. Похмел (03:32)
06. Самые лучшие тачки (03:25)
07. Марш наркоманов (колумбийская народная песня) (03:23)
08. Свин (04:39)
09. Любовь раскумаренная (04:29)
10. Хорошо в деревне летом (03:33)
11. Пора домой (03:54)
12. Звездная болезнь (моральным уродам посвящается) (03:37)
13. Вальпургиева ночь (03:54)
ЛОГ
Exact Audio Copy V0.99 prebeta 3 from 28. July 2007

Отчёт EAC об извлечении, выполненном 4. декабря 2007, 16:20

Сектор Газа / Наркологический университет миллионов

Дисковод: SONY DVD-ROM DDU1621 Adapter: 1 ID: 3

Режим чтения : Достоверность
Использование точного потока : Да
Отключение кэша аудио : Да
Использование указателей C2 : Нет

Коррекция смещения при чтении : 594
Способность читать области Lead-in и Lead-out : Нет
Заполнение пропущенных сэмплов тишиной : Да
Удаление блоков с тишиной в начале и конце : Нет
При вычислениях CRC использовались нулевые сэмплы : Да
Интерфейс : Встроенный Win32-интерфейс для Win NT/2000

Выходной формат : Внутренние WAV-операции
Формат сэмплов : 44.100 Гц; 16 бит; стерео

TOC извлечённого CD

Трек | Старт | Длительность | Начальный сектор | Конечный сектор
---------------------------------------------------------------------
1 | 0:00.00 | 2:22.07 | 0 | 10656
2 | 2:22.07 | 2:23.15 | 10657 | 21396
3 | 4:45.22 | 2:40.63 | 21397 | 33459
4 | 7:26.10 | 3:19.02 | 33460 | 48386
5 | 10:45.12 | 3:32.70 | 48387 | 64356
6 | 14:18.07 | 3:25.60 | 64357 | 79791
7 | 17:43.67 | 3:23.18 | 79792 | 95034
8 | 21:07.10 | 4:39.07 | 95035 | 115966
9 | 25:46.17 | 4:29.38 | 115967 | 136179
10 | 30:15.55 | 3:33.65 | 136180 | 152219
11 | 33:49.45 | 3:54.42 | 152220 | 169811
12 | 37:44.12 | 3:37.60 | 169812 | 186146
13 | 41:21.72 | 3:54.58 | 186147 | 203754

Характеристики диапазона извлечения и сообщения об ошибках

Выбранный диапазон

Имя файла G:\Торрент\Раздача\Сектор Газа\11 Наркологический университет миллионов\Сектор Газа - Наркологический университет миллионов.wav

Пиковый уровень 99.9 %
Качество диапазона 100.0 %
CRC копии 9F4AFC63
Копирование... OK

Ошибок не произошло

Конец отчёта
2000 - Восставший из ада
pic
01. Демобилизация (03:56)
02. Свадьба (04:26)
03. Рога (03:15)
04. Сельский туалет (02:50)
05. Грязная кровь (04:06)
06. Любовь загробная (04:33)
07. Черный вурдалак (04:31)
08. Истребители вампиров (05:06)
09. Ночь страха (05:59)
10. Святая война (04:56)
11. Восставший из ада (04:39)
ЛОГ
Exact Audio Copy V0.99 prebeta 3 from 28. July 2007

Отчёт EAC об извлечении, выполненном 4. декабря 2007, 15:49

Сектор Газа / Восставший из ада

Дисковод: SONY DVD-ROM DDU1621 Adapter: 1 ID: 3

Режим чтения : Достоверность
Использование точного потока : Да
Отключение кэша аудио : Да
Использование указателей C2 : Нет

Коррекция смещения при чтении : 594
Способность читать области Lead-in и Lead-out : Нет
Заполнение пропущенных сэмплов тишиной : Да
Удаление блоков с тишиной в начале и конце : Нет
При вычислениях CRC использовались нулевые сэмплы : Да
Интерфейс : Встроенный Win32-интерфейс для Win NT/2000

Выходной формат : Внутренние WAV-операции
Формат сэмплов : 44.100 Гц; 16 бит; стерео

TOC извлечённого CD

Трек | Старт | Длительность | Начальный сектор | Конечный сектор
---------------------------------------------------------------------
1 | 0:00.00 | 3:56.11 | 0 | 17710
2 | 3:56.11 | 4:26.31 | 17711 | 37691
3 | 8:22.42 | 3:15.49 | 37692 | 52365
4 | 11:38.16 | 2:50.25 | 52366 | 65140
5 | 14:28.41 | 4:06.20 | 65141 | 83610
6 | 18:34.61 | 4:33.68 | 83611 | 104153
7 | 23:08.54 | 4:31.00 | 104154 | 124478
8 | 27:39.54 | 5:06.28 | 124479 | 147456
9 | 32:46.07 | 5:59.52 | 147457 | 174433
10 | 38:45.59 | 4:56.45 | 174434 | 196678
11 | 43:42.29 | 4:39.02 | 196679 | 217605

Характеристики диапазона извлечения и сообщения об ошибках

Выбранный диапазон

Имя файла G:\Торрент\Раздача\Сектор Газа\12 Восставший из ада\Сектор Газа - Восставший из ада.wav

Пиковый уровень 100.0 %
Качество диапазона 99.9 %
CRC копии 9B90CF66
Копирование... OK

Ошибок не произошло

Конец отчёта

Внимание ! Релиз содержит ненормативную лексику .
Сектор Газа - Дискография.torrent
 ЗОЛОТАЯ РАЗДАЧА! СКАЧАННОЕ НЕ ЗАСЧИТЫВАЕТСЯ! 
Вечный
Трекер: Зарегистрирован

magnet ссылка

 


Скачать .torrent

22 KB

Статус: проверено (by Andruha в 19-Июн-10 20:50)
Зарегистрирован: 19-Июн-10 20:15
Скачан: 755 раз
Размер: 3.21 GB | 
Поблагодарили:
Скачать (Punk - Rock) Сектор Газа - Дискография (1989 - 2000), APE (image + .cue), lossless торрент
 


Похожие раздачи

Волжанин

post 19-Июн-10 20:18 (спустя 3 минуты)

Только основные альбомы

Jek-pirat

post 19-Июн-10 20:56 (спустя 37 минут)

Спасибо большое !!

VIRUS6006

post 20-Июн-10 00:12 (спустя 3 часа)

что значит только основные альбомы? есть ещё какие то?

Волжанин

post 20-Июн-10 00:21 (спустя 8 минут)

VIRUS6006
Это значит , что в релиз не включены "сборники" , а только "номерные" (студийные) альбомы...

J78

post 20-Июн-10 01:17 (спустя 56 минут)

Есть еще сборники избранного (к ним и сборники баллад), альбом ремиксов, первые версии альбомов, концертник и т.д., короче много еще всего.
P.S. Качать не буду, так как пока места нет на харде, но большое спасибо за то, что выложили эту коллекцию на трекер!

Волжанин

post 20-Июн-10 18:24 (спустя 17 часов)

На раздаче появлюсь после полуночи...

zolbaka

post 07-Мар-11 13:51 (спустя 8 месяцев)

Сид появись!!!

Krugol86

post 15-Июн-11 09:10 (спустя 3 месяца 7 дней)

А раздавать будет кто-то?

Юра 1973

post 21-Фев-18 10:10 (спустя 6 лет 8 месяцев)

Спасибо большое

Текущее время: 27-Июн 13:00

Часовой пояс: GMT + 3



Вы не можете начинать темы
Вы не можете отвечать на сообщения
Вы не можете редактировать свои сообщения
Вы не можете удалять свои сообщения
Вы не можете голосовать в опросах
Вы не можете прикреплять файлы к сообщениям
Вы не можете скачивать файлы