Loading...
Error
 

Скачать торрент (Jazz) Platina Jazz - Anime Standards Vol.6 - 2019 [FLAC, tracks, lossless]

 
Автор Сообщение

Myster_Ya

post 21-Июн-20 10:56

pic
Platina Jazz - Anime Standards Vol.6

Год издания: 2019.10.23
Жанр: Jazz
Продолжительность: 01:12:15
Лейбл издания: Victor
Страна-выпуска диска: Japan
Формат записи/Источник записи: [TR24][OF]
Разрядность: 24/96
Формат: FLAC
Битрейт аудио: Lossless
Тип рипа: tracks
Источник: mora.jp
Наличие сканов в содержимом раздачи: нет
Треклист:
01. ようこそジャパリパークへ(「けものフレンズ」より 3:52
02. 前前前世(「君の名は。」より)5:00
03. DANZEN! ふたりはプリキュア(「ふたりはプリキュア」より)3:56
04. Blue Dream(「聖闘士星矢」より)4:11
05. 打上花火(「打ち上げ花火、下から見るか?横から見るか?」より)4:47
06. 紅蓮の弓矢(「進撃の巨人」より)4:58
07. いただきマンボ(「イタダキマン」より)5:00
08. 四季ノ唄(「サムライチャンプルー」より)4:12
09. ウンディーネ(「ARIA The ANIMATION」より)5:48
10. 銀河鉄道999(「銀河鉄道999」より)3:45
11. コネクト(「魔法少女まどか☆マギカ」より)4:27
12. One more time, One more chance(「秒速5センチメートル」より)5:25
13. The Real Folk Blues(「カウボーイビバップ」より)6:54
14. もってけ! セーラーふく(「らき☆すた」より)4:46
15. 甘き死よ、来たれ(「新世紀エヴァンゲリオン」より)5:13
Лог проверки качества
foobar2000 1.5.4 / Замер динамического диапазона (DR) 1.1.1
Дата отчёта: 2020-06-21 09:25:44

--------------------------------------------------------------------------------
Анализ: プラチナ・ジャズ / プラチナ・ジャズ ~アニメ・スタンダード Vol.6~
--------------------------------------------------------------------------------

DR Пики RMS Продолжительность трека
--------------------------------------------------------------------------------
DR10 -0.31 дБ -12.03 дБ 3:52 01-ようこそジャパリパークへ(『けものフレンズ』より)
DR10 -0.32 дБ -11.79 дБ 5:00 02-前前前世(『君の名は。』より)
DR9 -0.32 дБ -10.14 дБ 3:56 03-DANZEN! ふたりはプリキュア(『ふたりはプリキュア』より)
DR11 -0.32 дБ -12.39 дБ 4:11 04-夢旅人(『聖闘士星矢』より)
DR10 -0.32 дБ -12.60 дБ 4:47 05-打上花火(『打ち上げ花火、下から見るか?横から見るか?』より)
DR10 -0.32 дБ -12.60 дБ 4:58 06-紅蓮の弓矢(『進撃の巨人』より)
DR9 -0.31 дБ -10.61 дБ 5:00 07-いただきマンボ(『イタダキマン』より)
DR11 -0.32 дБ -12.59 дБ 4:12 08-四季ノ唄(『サムライチャンプルー』より)
DR12 -0.32 дБ -15.15 дБ 5:48 09-ウンディーネ(『ARIA The ANIMATION』より)
DR11 -0.32 дБ -13.65 дБ 3:45 10-銀河鉄道999(『銀河鉄道999』より)
DR10 -0.32 дБ -12.18 дБ 4:27 11-コネクト(『魔法少女まどか☆マギカ』より)
DR9 -0.32 дБ -11.69 дБ 5:25 12-One more time, One more chance(『秒速5センチメートル』より)
DR9 -0.31 дБ -10.89 дБ 6:54 13-THE REAL FOLK BLUES(『カウボーイビバップ』より)
DR8 -0.31 дБ -9.59 дБ 4:46 14-もってけ! セーラーふく(『らき☆すた』より)
DR10 -0.32 дБ -13.29 дБ 5:13 15-甘き死よ、来たれ(『新世紀エヴァンゲリオン』より)
--------------------------------------------------------------------------------

Количество треков: 15
Реальные значения DR: DR10

Частота: 96000 Гц
Каналов: 2
Разрядность: 24
Битрейт: 4616 кбит/с
Кодек: FLAC
================================================================================
Превью

Platina Jazz - Anime Standards Vol.6 (FLAC)(Hi-RES).torrent
Трекер: Зарегистрирован

magnet ссылка

 


Скачать .torrent

13 KB

Статус: проверено (by E IL o T IR i X в 21-Июн-20 13:42)
Зарегистрирован: 21-Июн-20 10:56
Скачан: 24 раза
Размер: 2.35 GB | 
Поблагодарили:
Скачать (Jazz) Platina Jazz - Anime Standards Vol.6 - 2019 [FLAC, tracks, lossless] торрент
 


Похожие раздачи

Текущее время: 27-Янв 23:29

Часовой пояс: GMT + 3



Вы не можете начинать темы
Вы не можете отвечать на сообщения
Вы не можете редактировать свои сообщения
Вы не можете удалять свои сообщения
Вы не можете голосовать в опросах
Вы не можете прикреплять файлы к сообщениям
Вы не можете скачивать файлы