Loading...
Error
 

Скачать торрент (JPop) Mikuriya Kuon - Overwhelming high color longness - 2022, [TR24] [OF] [FLAC, tracks, lossless]

 
Автор Сообщение

Myster_Ya

post 17-Окт-22 11:17

Mikuriya Kuon - Overwhelming high color longness

pic
Формат записи/Источник записи: [TR24][OF]
Наличие водяных знаков: Нет
Год издания: 2022.09.10
Жанр: JPop
Издатель (лейбл): Zooo record
Продолжительность: 00:47:13
Контейнер: FLAC (*.flac)
Тип рипа: tracks
Разрядность: 24bit/48kHz
Формат: PCM
Количество каналов: 2.0
Источник (релизер) : ototoy.jp
Наличие сканов в содержимом раздачи: Нет
Треклист:
01. 桜坂 (Cover) [04:59]
02. again (Cover) [04:12]
03. そばかす (Cover) [04:13]
04. GLAMOROUS SKY (Cover) [04:28]
05. プラネタリウム (Cover) [05:10]
06. カブトムシ (Cover) [05:18]
07. Last Summer Whisper (Cover) [05:01]
08. 海の幽霊 (Cover) [03:58]
09. 君の知らない物語 (Cover) [05:40]
10. 夢見る少女じゃいられない (Cover) [04:19]
Лог Dynamic Range Meter

Код:

foobar2000 1.6.2 / Замер динамического диапазона (DR) 1.1.1
Дата отчёта:    2022-10-17 10:31:59

--------------------------------------------------------------------------------
Анализ:   御来屋久遠 / 圧倒的ハイカラ久遠リティ
--------------------------------------------------------------------------------

DR         Пики         RMS           Продолжительность трека
--------------------------------------------------------------------------------
DR10       0.00 дБ   -11.51 дБ      4:59 01-桜坂 (Cover)
DR8       -0.08 дБ    -8.99 дБ      4:12 02-again (Cover)
DR7       -0.14 дБ    -8.55 дБ      4:13 03-そばかす (Cover)
DR7       -0.14 дБ    -8.69 дБ      4:28 04-GLAMOROUS SKY (Cover)
DR5       -0.14 дБ    -6.74 дБ      5:10 05-プラネタリウム (Cover)
DR7       -0.05 дБ    -9.30 дБ      5:18 06-カブトムシ (Cover)
DR10      -0.08 дБ   -11.74 дБ      5:01 07-Last Summer Whisper (Cover)
DR8       -0.11 дБ   -11.83 дБ      3:58 08-海の幽霊 (Cover)
DR7       -0.05 дБ    -8.90 дБ      5:40 09-君の知らない物語 (Cover)
DR7       -0.14 дБ    -8.47 дБ      4:19 10-夢見る少女じゃいられない (Cover)
--------------------------------------------------------------------------------

Количество треков:  10
Реальные значения DR:  DR8

Частота:      48000 Гц
Каналов:      2
Разрядность:     24
Битрейт:      1849 кбит/с
Кодек:      FLAC
================================================================================
YouTube movie

Mikuriya Kuon - Overwhelming high color longness (2022.09.10) (24-48) (FLAC).torrent
Трекер: Зарегистрирован

magnet ссылка

 


Скачать .torrent

13 KB

Статус: проверено (by Myster_Ya в 17-Окт-22 11:17)
Зарегистрирован: 17-Окт-22 11:17
Скачан: 2 раза
Размер: 622 MB | 
Поблагодарили:
Скачать (JPop) Mikuriya Kuon - Overwhelming high color longness - 2022, [TR24] [OF] [FLAC, tracks, lossless] торрент
 


Похожие раздачи

Текущее время: 27-Ноя 05:26

Часовой пояс: GMT + 3



Вы не можете начинать темы
Вы не можете отвечать на сообщения
Вы не можете редактировать свои сообщения
Вы не можете удалять свои сообщения
Вы не можете голосовать в опросах
Вы не можете прикреплять файлы к сообщениям
Вы не можете скачивать файлы