Loading...
Error
 

Скачать торрент Within Temptation-Don't Pray For Me [2022, Symphonic Metal, Gothic Metal, WEB-DL 2160p]

 
Автор Сообщение

ichigo11

post 18-Ноя-22 13:16

pic
Within Temptation - Don't Pray For Me

Год выпуска: 2022
Страна: Нидерланды
Жанр: Symphonic Metal, Gothic Metal
Продолжительность: 00:03:41
Качество: WEB-DL 2160p
Формат: MP4
Видео кодек: H.264
Аудио кодек: AAC
Видео: MPEG4 Video (H264) 3840x2160 24fps 175 Mb/s
Аудио: AAC 48.0Hz 2ch 317kbps
MediaInfo
General
Complete name : E:\Within Temptation - Don't Pray For Me.mp4
Format : MPEG-4
Format profile : Base Media / Version 2
Codec ID : mp42 (mp42/mp41)
File size : 4.53 GiB
Duration : 3 min 41 s
Overall bit rate mode : Variable
Overall bit rate : 175 Mb/s
Encoded date : UTC 2022-07-05 23:13:59
Tagged date : UTC 2022-07-05 23:15:22
TIM : 00:00:00:00
TSC : 24
TSZ : 1

Video
ID : 1
Format : AVC
Format/Info : Advanced Video Codec
Format profile : [email protected]
Format settings : CABAC / 4 Ref Frames
Format settings, CABAC : Yes
Format settings, Reference fra : 4 frames
Codec ID : avc1
Codec ID/Info : Advanced Video Coding
Duration : 3 min 41 s
Bit rate : 175 Mb/s
Width : 3 840 pixels
Height : 2 160 pixels
Display aspect ratio : 16:9
Frame rate mode : Constant
Frame rate : 24.000 FPS
Color space : YUV
Chroma subsampling : 4:2:0
Bit depth : 8 bits
Scan type : Progressive
Bits/(Pixel*Frame) : 0.880
Stream size : 4.52 GiB (100%)
Language : English
Encoded date : UTC 2022-07-05 23:13:59
Tagged date : UTC 2022-07-05 23:13:59
Color range : Limited
Color primaries : BT.709
Transfer characteristics : BT.709
Matrix coefficients : BT.709
Codec configuration box : avcC

Audio
ID : 2
Format : AAC LC
Format/Info : Advanced Audio Codec Low Complexity
Codec ID : mp4a-40-2
Duration : 3 min 41 s
Source duration : 3 min 41 s
Bit rate mode : Variable
Bit rate : 317 kb/s
Maximum bit rate : 438 kb/s
Channel(s) : 2 channels
Channel layout : L R
Sampling rate : 48.0 kHz
Frame rate : 46.875 FPS (1024 SPF)
Compression mode : Lossy
Stream size : 8.38 MiB (0%)
Source stream size : 8.39 MiB (0%)
Language : English
Encoded date : UTC 2022-07-05 23:13:59
Tagged date : UTC 2022-07-05 23:13:59
Скриншоты

Within Temptation - Don't Pray For Me.mp4.torrent
Трекер: Зарегистрирован

magnet ссылка

 


Скачать .torrent

12 KB

Статус: проверено (by E IL o T IR i X в 18-Ноя-22 13:21)
Зарегистрирован: 18-Ноя-22 13:16
Скачан: 5 раз
Размер: 4.53 GB | 
Поблагодарили:
Скачать Within Temptation-Don't Pray For Me [2022, Symphonic Metal, Gothic Metal, WEB-DL 2160p] торрент
 


Похожие раздачи

ichigo11

post 18-Ноя-22 13:16 (спустя 41 секунда)

For information:

Текущее время: 26-Ноя 23:15

Часовой пояс: GMT + 3



Вы не можете начинать темы
Вы не можете отвечать на сообщения
Вы не можете редактировать свои сообщения
Вы не можете удалять свои сообщения
Вы не можете голосовать в опросах
Вы не можете прикреплять файлы к сообщениям
Вы не можете скачивать файлы